<?xml version="1.0" standalone="no"?>
<!DOCTYPE svg PUBLIC "-//W3C//DTD SVG 1.1//EN" "http://www.w3.org/Graphics/SVG/1.1/DTD/svg11.dtd" >
<svg xmlns="http://www.w3.org/2000/svg" xmlns:xlink="http://www.w3.org/1999/xlink" version="1.1">
<metadata>
Created by FontForge 20190801 at Thu Jun 25 18:25:42 2020
 By root
Copyright 2020 The Epilogue Project Authors (https://github.com/Etcetera-Type-Co/Epilogue)
</metadata>
<defs>
<font id="Epilogue-SemiBold" horiz-adv-x="0" >
  <font-face 
    font-family="Epilogue SemiBold"
    font-weight="600"
    font-stretch="normal"
    units-per-em="2000"
    panose-1="0 0 0 0 0 0 0 0 0 0"
    ascent="1600"
    descent="-400"
    x-height="1062"
    cap-height="1475"
    bbox="-483 -467 2437 2199"
    underline-thickness="50"
    underline-position="-125"
    unicode-range="U+000D-FB02"
  />
<missing-glyph horiz-adv-x="669" 
d="M80 73v1344h509v-1344h-509zM119 107h431v1276h-431v-1276zM230 1048l-30 26l110 98l-110 98l30 25l109 -97l109 97l30 -25l-110 -98l110 -98l-30 -26l-109 98zM230 612l-30 26l109 98l-109 98l30 26l109 -98l109 98l30 -26l-109 -98l109 -98l-30 -26l-109 98zM230 176
l-30 26l109 98l-109 98l30 26l109 -98l109 98l30 -26l-109 -98l109 -98l-30 -26l-109 98z" />
    <glyph glyph-name="f_f" unicode="ff" horiz-adv-x="1714" 
d="M261 0v852h-225v210h225v95q0 117 38 197.5t101 130t141 71.5t157 22q60 0 91.5 -7.5t42.5 -11.5v-212q-12 4 -41.5 9.5t-63.5 5.5q-82 0 -126 -30t-60.5 -81.5t-16.5 -114.5v-74h294v-210h-294v-852h-263zM1118 0v852h-225v210h225v95q0 117 38 197.5t101 130t141 71.5
t157 22q60 0 91.5 -7.5t42.5 -11.5v-212q-12 4 -41.5 9.5t-63.5 5.5q-82 0 -126 -30t-60.5 -81.5t-16.5 -114.5v-74h294v-210h-294v-852h-263z" />
    <glyph glyph-name="f_f_i" unicode="ffi" horiz-adv-x="2228" 
d="M261 0v852h-225v210h225v95q0 117 38 197.5t101 130t141 71.5t157 22q60 0 91.5 -7.5t42.5 -11.5v-212q-12 4 -41.5 9.5t-63.5 5.5q-82 0 -126 -30t-60.5 -81.5t-16.5 -114.5v-74h294v-210h-294v-852h-263zM1118 0v852h-225v210h225v95q0 117 38 197.5t101 130t141 71.5
t157 22q60 0 91.5 -7.5t42.5 -11.5v-212q-12 4 -41.5 9.5t-63.5 5.5q-82 0 -126 -30t-60.5 -81.5t-16.5 -114.5v-74h294v-210h-294v-852h-263zM1972 1258q-64 0 -111.5 34.5t-47.5 96.5q0 61 47.5 95t111.5 34q63 0 110 -34t47 -95q0 -63 -47 -97t-110 -34zM1841 0v1062h260
v-1062h-260z" />
    <glyph glyph-name="f_f_l" unicode="ffl" horiz-adv-x="2257" 
d="M261 0v852h-225v210h225v95q0 117 38 197.5t101 130t141 71.5t157 22q60 0 91.5 -7.5t42.5 -11.5v-212q-12 4 -41.5 9.5t-63.5 5.5q-82 0 -126 -30t-60.5 -81.5t-16.5 -114.5v-74h294v-210h-294v-852h-263zM1118 0v852h-225v210h225v95q0 117 38 197.5t101 130t141 71.5
t157 22q60 0 91.5 -7.5t42.5 -11.5v-212q-12 4 -41.5 9.5t-63.5 5.5q-82 0 -126 -30t-60.5 -81.5t-16.5 -114.5v-74h294v-210h-294v-852h-263zM2120 1563v-1563h-259v1563h259z" />
    <glyph glyph-name="fi" unicode="fi" horiz-adv-x="1371" 
d="M261 0v852h-225v210h225v95q0 117 38 197.5t101 130t141 71.5t157 22q60 0 91.5 -7.5t42.5 -11.5v-212q-12 4 -41.5 9.5t-63.5 5.5q-82 0 -126 -30t-60.5 -81.5t-16.5 -114.5v-74h294v-210h-294v-852h-263zM1115 1258q-64 0 -111.5 34.5t-47.5 96.5q0 61 47.5 95
t111.5 34q63 0 110 -34t47 -95q0 -63 -47 -97t-110 -34zM984 0v1062h260v-1062h-260z" />
    <glyph glyph-name="fl" unicode="fl" horiz-adv-x="1400" 
d="M261 0v852h-225v210h225v95q0 117 38 197.5t101 130t141 71.5t157 22q60 0 91.5 -7.5t42.5 -11.5v-212q-12 4 -41.5 9.5t-63.5 5.5q-82 0 -126 -30t-60.5 -81.5t-16.5 -114.5v-74h294v-210h-294v-852h-263zM1263 1563v-1563h-259v1563h259z" />
    <glyph glyph-name=".notdef" horiz-adv-x="669" 
d="M80 73v1344h509v-1344h-509zM119 107h431v1276h-431v-1276zM230 1048l-30 26l110 98l-110 98l30 25l109 -97l109 97l30 -25l-110 -98l110 -98l-30 -26l-109 98zM230 612l-30 26l109 98l-109 98l30 26l109 -98l109 98l30 -26l-109 -98l109 -98l-30 -26l-109 98zM230 176
l-30 26l109 98l-109 98l30 26l109 -98l109 98l30 -26l-109 -98l109 -98l-30 -26l-109 98z" />
    <glyph glyph-name="A" unicode="A" horiz-adv-x="1301" 
d="M63 0l381 1477h416l378 -1477h-271l-86 359h-460l-87 -359h-271zM472 570h358l-178 740z" />
    <glyph glyph-name="Aacute" unicode="&#xc1;" horiz-adv-x="1301" 
d="M63 0l381 1477h416l378 -1477h-271l-86 359h-460l-87 -359h-271zM472 570h358l-178 740zM499 1556l276 198h220l-300 -198h-196z" />
    <glyph glyph-name="Abreve" unicode="&#x102;" horiz-adv-x="1301" 
d="M63 0l381 1477h416l378 -1477h-271l-86 359h-460l-87 -359h-271zM472 570h358l-178 740zM379 1734h156q0 -38 31.5 -66.5t85.5 -28.5q55 0 86 28.5t31 66.5h157q0 -88 -78.5 -143.5t-195.5 -55.5t-195 55.5t-78 143.5z" />
    <glyph glyph-name="uni1EAE" unicode="&#x1eae;" horiz-adv-x="1301" 
d="M63 0l381 1477h416l378 -1477h-271l-86 359h-460l-87 -359h-271zM472 570h358l-178 740zM379 1734h156q0 -38 31.5 -66.5t85.5 -28.5q55 0 86 28.5t31 66.5h157q0 -88 -78.5 -143.5t-195.5 -55.5t-195 55.5t-78 143.5zM499 1809l276 198h220l-300 -198h-196z" />
    <glyph glyph-name="uni1EB6" unicode="&#x1eb6;" horiz-adv-x="1301" 
d="M63 0l381 1477h416l378 -1477h-271l-86 359h-460l-87 -359h-271zM472 570h358l-178 740zM650 -389q-64 0 -111 34.5t-47 95.5q0 62 47 95.5t111 33.5q62 0 109.5 -33.5t47.5 -95.5t-47.5 -96t-109.5 -34zM379 1734h156q0 -38 31.5 -66.5t85.5 -28.5q55 0 86 28.5t31 66.5
h157q0 -88 -78.5 -143.5t-195.5 -55.5t-195 55.5t-78 143.5z" />
    <glyph glyph-name="uni1EB0" unicode="&#x1eb0;" horiz-adv-x="1301" 
d="M63 0l381 1477h416l378 -1477h-271l-86 359h-460l-87 -359h-271zM472 570h358l-178 740zM379 1734h156q0 -38 31.5 -66.5t85.5 -28.5q55 0 86 28.5t31 66.5h157q0 -88 -78.5 -143.5t-195.5 -55.5t-195 55.5t-78 143.5zM807 1809h-195l-301 198h220z" />
    <glyph glyph-name="uni1EB2" unicode="&#x1eb2;" horiz-adv-x="1301" 
d="M63 0l381 1477h416l378 -1477h-271l-86 359h-460l-87 -359h-271zM472 570h358l-178 740zM379 1734h156q0 -38 31.5 -66.5t85.5 -28.5q55 0 86 28.5t31 66.5h157q0 -88 -78.5 -143.5t-195.5 -55.5t-195 55.5t-78 143.5zM439 2044q110 0 200.5 -8.5t144 -36t53.5 -85.5
q0 -75 -79 -108.5t-190 -33.5l-28 72q33 2 72 7.5t67 18t28 34.5q0 35 -71.5 44.5t-196.5 9.5v86z" />
    <glyph glyph-name="uni1EB4" unicode="&#x1eb4;" horiz-adv-x="1301" 
d="M63 0l381 1477h416l378 -1477h-271l-86 359h-460l-87 -359h-271zM472 570h358l-178 740zM379 1734h156q0 -38 31.5 -66.5t85.5 -28.5q55 0 86 28.5t31 66.5h157q0 -88 -78.5 -143.5t-195.5 -55.5t-195 55.5t-78 143.5zM976 2002q-1 -44 -20.5 -91.5t-60.5 -80.5t-106 -33
q-51 0 -86 20t-58 40q-22 18 -44.5 32.5t-51.5 14.5q-37 0 -52.5 -24.5t-16.5 -59.5h-139q2 46 23.5 94t64.5 80.5t109 32.5q48 0 82.5 -19.5t56.5 -38.5q23 -19 47 -34t50 -15q35 0 48.5 23.5t15.5 58.5h138z" />
    <glyph glyph-name="uni01CD" unicode="&#x1cd;" horiz-adv-x="1301" 
d="M63 0l381 1477h416l378 -1477h-271l-86 359h-460l-87 -359h-271zM472 570h358l-178 740zM331 1752h174l146 -128l146 128h176l-232 -198h-179z" />
    <glyph glyph-name="Acircumflex" unicode="&#xc2;" horiz-adv-x="1301" 
d="M63 0l381 1477h416l378 -1477h-271l-86 359h-460l-87 -359h-271zM472 570h358l-178 740zM331 1554l231 198h179l232 -198h-176l-146 127l-146 -127h-174z" />
    <glyph glyph-name="uni1EA4" unicode="&#x1ea4;" horiz-adv-x="1301" 
d="M63 0l381 1477h416l378 -1477h-271l-86 359h-460l-87 -359h-271zM472 570h358l-178 740zM863 1708l222 199h183l-237 -199h-168zM330 1554l231 198h180l231 -198h-175l-146 127l-146 -127h-175z" />
    <glyph glyph-name="uni1EAC" unicode="&#x1eac;" horiz-adv-x="1301" 
d="M63 0l381 1477h416l378 -1477h-271l-86 359h-460l-87 -359h-271zM472 570h358l-178 740zM650 -389q-64 0 -111 34.5t-47 95.5q0 62 47 95.5t111 33.5q62 0 109.5 -33.5t47.5 -95.5t-47.5 -96t-109.5 -34zM331 1554l231 198h179l232 -198h-176l-146 127l-146 -127h-174z
" />
    <glyph glyph-name="uni1EA6" unicode="&#x1ea6;" horiz-adv-x="1301" 
d="M63 0l381 1477h416l378 -1477h-271l-86 359h-460l-87 -359h-271zM472 570h358l-178 740zM1123 1708h-168l-237 199h183zM333 1554l231 198h179l232 -198h-176l-146 127l-146 -127h-174z" />
    <glyph glyph-name="uni1EA8" unicode="&#x1ea8;" horiz-adv-x="1301" 
d="M63 0l381 1477h416l378 -1477h-271l-86 359h-460l-87 -359h-271zM472 570h358l-178 740zM759 1976q110 0 200.5 -9t144.5 -36.5t54 -84.5q0 -75 -79 -109t-190 -34l-29 73q33 1 72 6.5t67 18t28 35.5q0 35 -71.5 44.5t-196.5 9.5v86zM332 1554l231 198h179l232 -198h-176
l-146 127l-146 -127h-174z" />
    <glyph glyph-name="uni1EAA" unicode="&#x1eaa;" horiz-adv-x="1301" 
d="M63 0l381 1477h416l378 -1477h-271l-86 359h-460l-87 -359h-271zM472 570h358l-178 740zM331 1554l231 198h179l232 -198h-176l-146 127l-146 -127h-174zM976 2026q-1 -44 -20.5 -91.5t-60.5 -80.5t-106 -33q-51 0 -86 20t-58 40q-22 18 -44.5 32.5t-51.5 14.5
q-37 0 -52.5 -24.5t-16.5 -59.5h-139q2 46 23.5 94t64.5 80.5t109 32.5q48 0 82.5 -19.5t56.5 -38.5q23 -19 47 -34t50 -15q35 0 48.5 23.5t15.5 58.5h138z" />
    <glyph glyph-name="uni0200" unicode="&#x200;" horiz-adv-x="1301" 
d="M63 0l381 1477h416l378 -1477h-271l-86 359h-460l-87 -359h-271zM472 570h358l-178 740zM893 1555h-148l-205 200h171zM570 1555h-149l-224 200h172z" />
    <glyph glyph-name="Adieresis" unicode="&#xc4;" horiz-adv-x="1301" 
d="M63 0l381 1477h416l378 -1477h-271l-86 359h-460l-87 -359h-271zM472 570h358l-178 740zM426 1549q-58 0 -101.5 31.5t-43.5 88.5t43.5 88t101.5 31t102 -31t44 -88t-44 -88.5t-102 -31.5zM878 1549q-59 0 -102 31.5t-43 88.5t43 88t102 31q58 0 101.5 -31t43.5 -88
t-43.5 -88.5t-101.5 -31.5z" />
    <glyph glyph-name="uni01DE" unicode="&#x1de;" horiz-adv-x="1301" 
d="M63 0l381 1477h416l378 -1477h-271l-86 359h-460l-87 -359h-271zM472 570h358l-178 740zM426 1549q-58 0 -101.5 31.5t-43.5 88.5t43.5 88t101.5 31t102 -31t44 -88t-44 -88.5t-102 -31.5zM878 1549q-59 0 -102 31.5t-43 88.5t43 88t102 31q58 0 101.5 -31t43.5 -88
t-43.5 -88.5t-101.5 -31.5zM357 1891v111h588v-111h-588z" />
    <glyph glyph-name="uni1EA0" unicode="&#x1ea0;" horiz-adv-x="1301" 
d="M63 0l381 1477h416l378 -1477h-271l-86 359h-460l-87 -359h-271zM472 570h358l-178 740zM650 -389q-64 0 -111 34.5t-47 95.5q0 62 47 95.5t111 33.5q62 0 109.5 -33.5t47.5 -95.5t-47.5 -96t-109.5 -34z" />
    <glyph glyph-name="Agrave" unicode="&#xc0;" horiz-adv-x="1301" 
d="M63 0l381 1477h416l378 -1477h-271l-86 359h-460l-87 -359h-271zM472 570h358l-178 740zM807 1556h-195l-301 198h220z" />
    <glyph glyph-name="uni1EA2" unicode="&#x1ea2;" horiz-adv-x="1301" 
d="M63 0l381 1477h416l378 -1477h-271l-86 359h-460l-87 -359h-271zM472 570h358l-178 740zM439 1791q110 0 200.5 -8.5t144 -36t53.5 -85.5q0 -75 -79 -108.5t-190 -33.5l-28 72q33 2 72 7.5t67 18t28 34.5q0 35 -71.5 44.5t-196.5 9.5v86z" />
    <glyph glyph-name="uni0202" unicode="&#x202;" horiz-adv-x="1301" 
d="M63 0l381 1477h416l378 -1477h-271l-86 359h-460l-87 -359h-271zM472 570h358l-178 740zM379 1548q0 88 78 141.5t195 53.5t195.5 -53.5t78.5 -141.5h-157q0 38 -31 64.5t-86 26.5q-54 0 -85.5 -26.5t-31.5 -64.5h-156z" />
    <glyph glyph-name="Amacron" unicode="&#x100;" horiz-adv-x="1301" 
d="M63 0l381 1477h416l378 -1477h-271l-86 359h-460l-87 -359h-271zM472 570h358l-178 740zM357 1610v111h588v-111h-588z" />
    <glyph glyph-name="Aogonek" unicode="&#x104;" horiz-adv-x="1301" 
d="M63 0l381 1477h416l378 -1477h-271l-86 359h-460l-87 -359h-271zM472 570h358l-178 740zM1238 -309v-129q-20 -2 -44.5 -4t-49.5 -2q-93 0 -164.5 36.5t-71.5 123.5q0 57 33.5 112t79.5 100t83 72h134q-32 -27 -73.5 -71.5t-72.5 -91.5t-31 -81q0 -40 28.5 -56t70.5 -16
q19 0 40 2t38 5z" />
    <glyph glyph-name="Aring" unicode="&#xc5;" horiz-adv-x="1301" 
d="M63 0l381 1477h416l378 -1477h-271l-86 359h-460l-87 -359h-271zM472 570h358l-178 740zM652 1519q-90 0 -153.5 63.5t-63.5 153.5q0 59 29.5 108.5t78.5 79t109 29.5q90 0 153.5 -64t63.5 -153q0 -90 -63.5 -153.5t-153.5 -63.5zM652 1635q42 0 71.5 29t29.5 72
q0 42 -29.5 71t-71.5 29t-71.5 -29t-29.5 -71q0 -43 29.5 -72t71.5 -29z" />
    <glyph glyph-name="Aringacute" unicode="&#x1fa;" horiz-adv-x="1301" 
d="M63 0l381 1477h416l378 -1477h-271l-86 359h-460l-87 -359h-271zM472 570h358l-178 740zM652 1519q-90 0 -153.5 63.5t-63.5 153.5q0 59 29.5 108.5t78.5 79t109 29.5q90 0 153.5 -64t63.5 -153q0 -90 -63.5 -153.5t-153.5 -63.5zM652 1635q42 0 71.5 29t29.5 72
q0 42 -29.5 71t-71.5 29t-71.5 -29t-29.5 -71q0 -43 29.5 -72t71.5 -29zM499 2001l276 198h220l-300 -198h-196z" />
    <glyph glyph-name="Atilde" unicode="&#xc3;" horiz-adv-x="1301" 
d="M63 0l381 1477h416l378 -1477h-271l-86 359h-460l-87 -359h-271zM472 570h358l-178 740zM976 1749q-1 -44 -20.5 -91.5t-60.5 -80.5t-106 -33q-51 0 -86 20t-58 40q-22 18 -44.5 32.5t-51.5 14.5q-37 0 -52.5 -24.5t-16.5 -59.5h-139q2 46 23.5 94t64.5 80.5t109 32.5
q48 0 82.5 -19.5t56.5 -38.5q23 -19 47 -34t50 -15q35 0 48.5 23.5t15.5 58.5h138z" />
    <glyph glyph-name="AE" unicode="&#xc6;" horiz-adv-x="1948" 
d="M0 0l850 1475h970v-210h-614v-420h503v-210h-503v-425h614v-210h-867v300h-500l-167 -300h-286zM565 503h388v699z" />
    <glyph glyph-name="AEacute" unicode="&#x1fc;" horiz-adv-x="1948" 
d="M0 0l850 1475h970v-210h-614v-420h503v-210h-503v-425h614v-210h-867v300h-500l-167 -300h-286zM565 503h388v699zM999 1556l276 198h220l-300 -198h-196z" />
    <glyph glyph-name="B" unicode="B" horiz-adv-x="1260" 
d="M681 1475q222 0 332.5 -92.5t110.5 -262.5q0 -110 -44.5 -186.5t-112.5 -117.5t-140 -46q76 -2 152.5 -37t127.5 -112t51 -207q0 -185 -112.5 -299.5t-369.5 -114.5h-547v1475h552zM614 1265h-233v-398h210q131 0 200 55t69 155t-64.5 144t-181.5 44zM624 210
q128 0 197 58t69 162q0 121 -81 174.5t-203 53.5h-225v-448h243z" />
    <glyph glyph-name="C" unicode="C" horiz-adv-x="1383" 
d="M1294 531q0 -94 -35 -191t-106.5 -179.5t-180.5 -132.5t-256 -50q-199 0 -339.5 97t-214 268.5t-73.5 393.5q0 223 73.5 394t214 268t339.5 97q165 0 282 -63t187 -162t94 -207q15 -63 15 -120h-265q0 30 -4 60q-17 115 -96 194.5t-213 79.5q-159 0 -259 -134t-100 -407
t100 -408t259 -135q100 0 170 48t106.5 125t36.5 164h265z" />
    <glyph glyph-name="Cacute" unicode="&#x106;" horiz-adv-x="1383" 
d="M1294 531q0 -94 -35 -191t-106.5 -179.5t-180.5 -132.5t-256 -50q-199 0 -339.5 97t-214 268.5t-73.5 393.5q0 223 73.5 394t214 268t339.5 97q165 0 282 -63t187 -162t94 -207q15 -63 15 -120h-265q0 30 -4 60q-17 115 -96 194.5t-213 79.5q-159 0 -259 -134t-100 -407
t100 -408t259 -135q100 0 170 48t106.5 125t36.5 164h265zM557 1556l276 198h220l-300 -198h-196z" />
    <glyph glyph-name="Ccaron" unicode="&#x10c;" horiz-adv-x="1383" 
d="M1294 531q0 -94 -35 -191t-106.5 -179.5t-180.5 -132.5t-256 -50q-199 0 -339.5 97t-214 268.5t-73.5 393.5q0 223 73.5 394t214 268t339.5 97q165 0 282 -63t187 -162t94 -207q15 -63 15 -120h-265q0 30 -4 60q-17 115 -96 194.5t-213 79.5q-159 0 -259 -134t-100 -407
t100 -408t259 -135q100 0 170 48t106.5 125t36.5 164h265zM389 1752h174l146 -128l146 128h176l-232 -198h-179z" />
    <glyph glyph-name="Ccedilla" unicode="&#xc7;" horiz-adv-x="1383" 
d="M812 -82q52 0 100 -35.5t48 -114.5q0 -64 -38 -105.5t-98 -61.5t-127 -20q-60 0 -118.5 15t-81.5 31l52 99q18 -11 62 -27.5t95 -16.5q58 0 96.5 23.5t38.5 67.5q0 36 -20 52.5t-50 16.5q-25 0 -50.5 -9t-37.5 -26l-102 29l63 145q-179 19 -303 121.5t-188 267t-64 367.5
q0 217 73 388.5t213 271t341 99.5q165 0 282 -63t187 -162t94 -207q15 -63 15 -120h-265q0 30 -4 60q-17 115 -96 194.5t-213 79.5q-159 0 -259 -134t-100 -407t100 -408t259 -135q100 0 170 48t106.5 125t36.5 164h265q0 -91 -32.5 -184.5t-99 -174t-167.5 -133t-237 -60.5
l-37 -86q37 25 91 25z" />
    <glyph glyph-name="uni1E08" unicode="&#x1e08;" horiz-adv-x="1383" 
d="M812 -82q52 0 100 -35.5t48 -114.5q0 -64 -38 -105.5t-98 -61.5t-127 -20q-60 0 -118.5 15t-81.5 31l52 99q18 -11 62 -27.5t95 -16.5q58 0 96.5 23.5t38.5 67.5q0 36 -20 52.5t-50 16.5q-25 0 -50.5 -9t-37.5 -26l-102 29l63 145q-179 19 -303 121.5t-188 267t-64 367.5
q0 217 73 388.5t213 271t341 99.5q165 0 282 -63t187 -162t94 -207q15 -63 15 -120h-265q0 30 -4 60q-17 115 -96 194.5t-213 79.5q-159 0 -259 -134t-100 -407t100 -408t259 -135q100 0 170 48t106.5 125t36.5 164h265q0 -91 -32.5 -184.5t-99 -174t-167.5 -133t-237 -60.5
l-37 -86q37 25 91 25zM557 1556l276 198h220l-300 -198h-196z" />
    <glyph glyph-name="Ccircumflex" unicode="&#x108;" horiz-adv-x="1383" 
d="M1294 531q0 -94 -35 -191t-106.5 -179.5t-180.5 -132.5t-256 -50q-199 0 -339.5 97t-214 268.5t-73.5 393.5q0 223 73.5 394t214 268t339.5 97q165 0 282 -63t187 -162t94 -207q15 -63 15 -120h-265q0 30 -4 60q-17 115 -96 194.5t-213 79.5q-159 0 -259 -134t-100 -407
t100 -408t259 -135q100 0 170 48t106.5 125t36.5 164h265zM389 1554l231 198h179l232 -198h-176l-146 127l-146 -127h-174z" />
    <glyph glyph-name="Cdotaccent" unicode="&#x10a;" horiz-adv-x="1383" 
d="M1294 531q0 -94 -35 -191t-106.5 -179.5t-180.5 -132.5t-256 -50q-199 0 -339.5 97t-214 268.5t-73.5 393.5q0 223 73.5 394t214 268t339.5 97q165 0 282 -63t187 -162t94 -207q15 -63 15 -120h-265q0 30 -4 60q-17 115 -96 194.5t-213 79.5q-159 0 -259 -134t-100 -407
t100 -408t259 -135q100 0 170 48t106.5 125t36.5 164h265zM712 1565q-63 0 -110.5 34.5t-47.5 95.5q0 62 47.5 96t110.5 34q64 0 111 -34t47 -96t-47 -96t-111 -34z" />
    <glyph glyph-name="D" unicode="D" horiz-adv-x="1311" 
d="M129 0v1475h441q196 0 343 -92t228.5 -257.5t81.5 -386.5t-81.5 -387.5t-228.5 -259t-343 -92.5h-441zM536 1265h-143v-1055h143q120 0 214.5 64t149.5 183t55 282q0 164 -55 281.5t-149.5 181t-214.5 63.5z" />
    <glyph glyph-name="uni01C4" unicode="&#x1c4;" horiz-adv-x="2359" 
d="M129 0v1475h441q196 0 343 -92t228.5 -257.5t81.5 -386.5t-81.5 -387.5t-228.5 -259t-343 -92.5h-441zM536 1265h-143v-1055h143q120 0 214.5 64t149.5 183t55 282q0 164 -55 281.5t-149.5 181t-214.5 63.5zM1602 210h655v-210h-951v183l666 1082h-620v210h914v-180
l-664 -1082v-3zM1468 1752h174l146 -128l146 128h176l-232 -198h-179z" />
    <glyph glyph-name="Eth" unicode="&#xd0;" horiz-adv-x="1311" 
d="M129 0v676h-121v121h121v678h441q196 0 343 -92t228.5 -257.5t81.5 -386.5t-81.5 -387.5t-228.5 -259t-343 -92.5h-441zM725 676h-332v-466h143q120 0 214.5 64t149.5 183t55 282q0 164 -55 281.5t-149.5 181t-214.5 63.5h-143v-468h332v-121z" />
    <glyph glyph-name="Dcaron" unicode="&#x10e;" horiz-adv-x="1311" 
d="M129 0v1475h441q196 0 343 -92t228.5 -257.5t81.5 -386.5t-81.5 -387.5t-228.5 -259t-343 -92.5h-441zM536 1265h-143v-1055h143q120 0 214.5 64t149.5 183t55 282q0 164 -55 281.5t-149.5 181t-214.5 63.5zM304 1752h174l146 -128l146 128h176l-232 -198h-179z" />
    <glyph glyph-name="Dcroat" unicode="&#x110;" horiz-adv-x="1311" 
d="M129 0v1475h441q196 0 343 -92t228.5 -257.5t81.5 -386.5t-81.5 -387.5t-228.5 -259t-343 -92.5h-441zM536 1265h-143v-1055h143q120 0 214.5 64t149.5 183t55 282q0 164 -55 281.5t-149.5 181t-214.5 63.5zM8 676v121h717v-121h-717z" />
    <glyph glyph-name="uni1E0C" unicode="&#x1e0c;" horiz-adv-x="1311" 
d="M129 0v1475h441q196 0 343 -92t228.5 -257.5t81.5 -386.5t-81.5 -387.5t-228.5 -259t-343 -92.5h-441zM536 1265h-143v-1055h143q120 0 214.5 64t149.5 183t55 282q0 164 -55 281.5t-149.5 181t-214.5 63.5zM625 -389q-64 0 -111 34.5t-47 95.5q0 62 47 95.5t111 33.5
q62 0 109.5 -33.5t47.5 -95.5t-47.5 -96t-109.5 -34z" />
    <glyph glyph-name="uni1E0E" unicode="&#x1e0e;" horiz-adv-x="1311" 
d="M129 0v1475h441q196 0 343 -92t228.5 -257.5t81.5 -386.5t-81.5 -387.5t-228.5 -259t-343 -92.5h-441zM536 1265h-143v-1055h143q120 0 214.5 64t149.5 183t55 282q0 164 -55 281.5t-149.5 181t-214.5 63.5zM313 -288v111h625v-111h-625z" />
    <glyph glyph-name="uni01C5" unicode="&#x1c5;" horiz-adv-x="2320" 
d="M129 0v1475h441q196 0 343 -92t228.5 -257.5t81.5 -386.5t-81.5 -387.5t-228.5 -259t-343 -92.5h-441zM536 1265h-143v-1055h143q120 0 214.5 64t149.5 183t55 282q0 164 -55 281.5t-149.5 181t-214.5 63.5zM2255 214v-214h-879v203l575 645h-553v214h846v-203l-572 -645
h583zM1503 1475h171l145 -171l146 171h173l-231 -262h-174z" />
    <glyph glyph-name="E" unicode="E" horiz-adv-x="1124" 
d="M995 210v-210h-866v1475h866v-210h-601v-420h490v-210h-490v-425h601z" />
    <glyph glyph-name="Eacute" unicode="&#xc9;" horiz-adv-x="1124" 
d="M995 210v-210h-866v1475h866v-210h-601v-420h490v-210h-490v-425h601zM422 1556l276 198h220l-300 -198h-196z" />
    <glyph glyph-name="Ebreve" unicode="&#x114;" horiz-adv-x="1124" 
d="M995 210v-210h-866v1475h866v-210h-601v-420h490v-210h-490v-425h601zM302 1734h156q0 -38 31.5 -66.5t85.5 -28.5q55 0 86 28.5t31 66.5h157q0 -88 -78.5 -143.5t-195.5 -55.5t-195 55.5t-78 143.5z" />
    <glyph glyph-name="Ecaron" unicode="&#x11a;" horiz-adv-x="1124" 
d="M995 210v-210h-866v1475h866v-210h-601v-420h490v-210h-490v-425h601zM254 1752h174l146 -128l146 128h176l-232 -198h-179z" />
    <glyph glyph-name="uni0228" unicode="&#x228;" horiz-adv-x="1124" 
d="M995 210v-210h-866v1475h866v-210h-601v-420h490v-210h-490v-425h601zM684 -82q52 0 100 -35.5t48 -114.5q0 -64 -38 -105.5t-98 -61.5t-127 -20q-60 0 -118.5 15t-81.5 31l53 99q17 -11 61 -27.5t96 -16.5q57 0 96 23.5t39 67.5q0 36 -20.5 52.5t-50.5 16.5
q-25 0 -50 -9t-38 -26l-102 29l71 164h115l-46 -107q37 25 91 25z" />
    <glyph glyph-name="uni1E1C" unicode="&#x1e1c;" horiz-adv-x="1124" 
d="M995 210v-210h-866v1475h866v-210h-601v-420h490v-210h-490v-425h601zM684 -82q52 0 100 -35.5t48 -114.5q0 -64 -38 -105.5t-98 -61.5t-127 -20q-60 0 -118.5 15t-81.5 31l53 99q17 -11 61 -27.5t96 -16.5q57 0 96 23.5t39 67.5q0 36 -20.5 52.5t-50.5 16.5
q-25 0 -50 -9t-38 -26l-102 29l71 164h115l-46 -107q37 25 91 25zM302 1734h156q0 -38 31.5 -66.5t85.5 -28.5q55 0 86 28.5t31 66.5h157q0 -88 -78.5 -143.5t-195.5 -55.5t-195 55.5t-78 143.5z" />
    <glyph glyph-name="Ecircumflex" unicode="&#xca;" horiz-adv-x="1124" 
d="M995 210v-210h-866v1475h866v-210h-601v-420h490v-210h-490v-425h601zM254 1554l231 198h179l232 -198h-176l-146 127l-146 -127h-174z" />
    <glyph glyph-name="uni1EBE" unicode="&#x1ebe;" horiz-adv-x="1124" 
d="M995 210v-210h-866v1475h866v-210h-601v-420h490v-210h-490v-425h601zM786 1708l222 199h183l-237 -199h-168zM253 1554l231 198h180l231 -198h-175l-146 127l-146 -127h-175z" />
    <glyph glyph-name="uni1EC6" unicode="&#x1ec6;" horiz-adv-x="1124" 
d="M995 210v-210h-866v1475h866v-210h-601v-420h490v-210h-490v-425h601zM586 -389q-64 0 -111 34.5t-47 95.5q0 62 47 95.5t111 33.5q62 0 109.5 -33.5t47.5 -95.5t-47.5 -96t-109.5 -34zM254 1554l231 198h179l232 -198h-176l-146 127l-146 -127h-174z" />
    <glyph glyph-name="uni1EC0" unicode="&#x1ec0;" horiz-adv-x="1124" 
d="M995 210v-210h-866v1475h866v-210h-601v-420h490v-210h-490v-425h601zM1046 1708h-168l-237 199h183zM256 1554l231 198h179l232 -198h-176l-146 127l-146 -127h-174z" />
    <glyph glyph-name="uni1EC2" unicode="&#x1ec2;" horiz-adv-x="1124" 
d="M995 210v-210h-866v1475h866v-210h-601v-420h490v-210h-490v-425h601zM682 1976q110 0 200.5 -9t144.5 -36.5t54 -84.5q0 -75 -79 -109t-190 -34l-29 73q33 1 72 6.5t67 18t28 35.5q0 35 -71.5 44.5t-196.5 9.5v86zM255 1554l231 198h179l232 -198h-176l-146 127
l-146 -127h-174z" />
    <glyph glyph-name="uni1EC4" unicode="&#x1ec4;" horiz-adv-x="1124" 
d="M995 210v-210h-866v1475h866v-210h-601v-420h490v-210h-490v-425h601zM254 1554l231 198h179l232 -198h-176l-146 127l-146 -127h-174zM899 2026q-1 -44 -20.5 -91.5t-60.5 -80.5t-106 -33q-51 0 -86 20t-58 40q-22 18 -44.5 32.5t-51.5 14.5q-37 0 -52.5 -24.5
t-16.5 -59.5h-139q2 46 23.5 94t64.5 80.5t109 32.5q48 0 82.5 -19.5t56.5 -38.5q23 -19 47 -34t50 -15q35 0 48.5 23.5t15.5 58.5h138z" />
    <glyph glyph-name="uni0204" unicode="&#x204;" horiz-adv-x="1124" 
d="M995 210v-210h-866v1475h866v-210h-601v-420h490v-210h-490v-425h601zM816 1555h-148l-205 200h171zM493 1555h-149l-224 200h172z" />
    <glyph glyph-name="Edieresis" unicode="&#xcb;" horiz-adv-x="1124" 
d="M995 210v-210h-866v1475h866v-210h-601v-420h490v-210h-490v-425h601zM349 1549q-58 0 -101.5 31.5t-43.5 88.5t43.5 88t101.5 31t102 -31t44 -88t-44 -88.5t-102 -31.5zM801 1549q-59 0 -102 31.5t-43 88.5t43 88t102 31q58 0 101.5 -31t43.5 -88t-43.5 -88.5
t-101.5 -31.5z" />
    <glyph glyph-name="Edotaccent" unicode="&#x116;" horiz-adv-x="1124" 
d="M995 210v-210h-866v1475h866v-210h-601v-420h490v-210h-490v-425h601zM577 1565q-63 0 -110.5 34.5t-47.5 95.5q0 62 47.5 96t110.5 34q64 0 111 -34t47 -96t-47 -96t-111 -34z" />
    <glyph glyph-name="uni1EB8" unicode="&#x1eb8;" horiz-adv-x="1124" 
d="M995 210v-210h-866v1475h866v-210h-601v-420h490v-210h-490v-425h601zM586 -389q-64 0 -111 34.5t-47 95.5q0 62 47 95.5t111 33.5q62 0 109.5 -33.5t47.5 -95.5t-47.5 -96t-109.5 -34z" />
    <glyph glyph-name="Egrave" unicode="&#xc8;" horiz-adv-x="1124" 
d="M995 210v-210h-866v1475h866v-210h-601v-420h490v-210h-490v-425h601zM730 1556h-195l-301 198h220z" />
    <glyph glyph-name="uni1EBA" unicode="&#x1eba;" horiz-adv-x="1124" 
d="M995 210v-210h-866v1475h866v-210h-601v-420h490v-210h-490v-425h601zM362 1791q110 0 200.5 -8.5t144 -36t53.5 -85.5q0 -75 -79 -108.5t-190 -33.5l-28 72q33 2 72 7.5t67 18t28 34.5q0 35 -71.5 44.5t-196.5 9.5v86z" />
    <glyph glyph-name="uni0206" unicode="&#x206;" horiz-adv-x="1124" 
d="M995 210v-210h-866v1475h866v-210h-601v-420h490v-210h-490v-425h601zM302 1548q0 88 78 141.5t195 53.5t195.5 -53.5t78.5 -141.5h-157q0 38 -31 64.5t-86 26.5q-54 0 -85.5 -26.5t-31.5 -64.5h-156z" />
    <glyph glyph-name="Emacron" unicode="&#x112;" horiz-adv-x="1124" 
d="M995 210v-210h-866v1475h866v-210h-601v-420h490v-210h-490v-425h601zM280 1610v111h588v-111h-588z" />
    <glyph glyph-name="uni1E16" unicode="&#x1e16;" horiz-adv-x="1124" 
d="M995 210v-210h-866v1475h866v-210h-601v-420h490v-210h-490v-425h601zM280 1610v111h588v-111h-588zM422 1802l276 198h220l-300 -198h-196z" />
    <glyph glyph-name="uni1E14" unicode="&#x1e14;" horiz-adv-x="1124" 
d="M995 210v-210h-866v1475h866v-210h-601v-420h490v-210h-490v-425h601zM280 1610v111h588v-111h-588zM730 1802h-195l-301 198h220z" />
    <glyph glyph-name="Eogonek" unicode="&#x118;" horiz-adv-x="1124" 
d="M995 210v-210h-866v1475h866v-210h-601v-420h490v-210h-490v-425h601zM995 -309v-129q-20 -2 -44.5 -4t-49.5 -2q-93 0 -164.5 36.5t-71.5 123.5q0 57 33.5 112t79.5 100t83 72h134q-32 -27 -73.5 -71.5t-72.5 -91.5t-31 -81q0 -40 28.5 -56t70.5 -16q19 0 40 2t38 5z
" />
    <glyph glyph-name="uni1EBC" unicode="&#x1ebc;" horiz-adv-x="1124" 
d="M995 210v-210h-866v1475h866v-210h-601v-420h490v-210h-490v-425h601zM899 1749q-1 -44 -20.5 -91.5t-60.5 -80.5t-106 -33q-51 0 -86 20t-58 40q-22 18 -44.5 32.5t-51.5 14.5q-37 0 -52.5 -24.5t-16.5 -59.5h-139q2 46 23.5 94t64.5 80.5t109 32.5q48 0 82.5 -19.5
t56.5 -38.5q23 -19 47 -34t50 -15q35 0 48.5 23.5t15.5 58.5h138z" />
    <glyph glyph-name="uni01B7" unicode="&#x1b7;" horiz-adv-x="1213" 
d="M599 -22q-186 0 -293 65.5t-152 176t-45 245.5v4h264v-4q0 -159 61 -218t168 -59q95 0 152.5 55.5t57.5 188.5q0 129 -69 176t-237 47h-100l363 610h-616v210h893v-194l-285 -456q159 0 237.5 -104.5t78.5 -270.5q0 -138 -51 -244.5t-156.5 -167t-270.5 -60.5z" />
    <glyph glyph-name="uni01EE" unicode="&#x1ee;" horiz-adv-x="1213" 
d="M599 -22q-186 0 -293 65.5t-152 176t-45 245.5v4h264v-4q0 -159 61 -218t168 -59q95 0 152.5 55.5t57.5 188.5q0 129 -69 176t-237 47h-100l363 610h-616v210h893v-194l-285 -456q159 0 237.5 -104.5t78.5 -270.5q0 -138 -51 -244.5t-156.5 -167t-270.5 -60.5zM286 1752
h174l146 -128l146 128h176l-232 -198h-179z" />
    <glyph glyph-name="F" unicode="F" horiz-adv-x="1093" 
d="M911 617h-520v-617h-262v1475h871v-210h-609v-437h520v-211z" />
    <glyph glyph-name="G" unicode="G" horiz-adv-x="1413" 
d="M708 -22q-172 0 -312.5 88t-223.5 257t-83 411q0 243 86 413t232.5 259.5t327.5 89.5q150 0 254.5 -49.5t169.5 -127.5t95 -164t30 -160v-12h-256v12q0 69 -32.5 134t-97.5 106.5t-163 41.5q-99 0 -185.5 -55t-140 -174.5t-53.5 -313.5q0 -196 51.5 -314.5t136 -172
t182.5 -53.5q100 0 166.5 34.5t104 85t47.5 99.5v115h-315v198h551v-726h-152l-22 164q-10 -24 -52.5 -68.5t-126.5 -81t-219 -36.5z" />
    <glyph glyph-name="Gbreve" unicode="&#x11e;" horiz-adv-x="1413" 
d="M708 -22q-172 0 -312.5 88t-223.5 257t-83 411q0 243 86 413t232.5 259.5t327.5 89.5q150 0 254.5 -49.5t169.5 -127.5t95 -164t30 -160v-12h-256v12q0 69 -32.5 134t-97.5 106.5t-163 41.5q-99 0 -185.5 -55t-140 -174.5t-53.5 -313.5q0 -196 51.5 -314.5t136 -172
t182.5 -53.5q100 0 166.5 34.5t104 85t47.5 99.5v115h-315v198h551v-726h-152l-22 164q-10 -24 -52.5 -68.5t-126.5 -81t-219 -36.5zM456 1734h156q0 -38 31.5 -66.5t85.5 -28.5q55 0 86 28.5t31 66.5h157q0 -88 -78.5 -143.5t-195.5 -55.5t-195 55.5t-78 143.5z" />
    <glyph glyph-name="Gcaron" unicode="&#x1e6;" horiz-adv-x="1413" 
d="M708 -22q-172 0 -312.5 88t-223.5 257t-83 411q0 243 86 413t232.5 259.5t327.5 89.5q150 0 254.5 -49.5t169.5 -127.5t95 -164t30 -160v-12h-256v12q0 69 -32.5 134t-97.5 106.5t-163 41.5q-99 0 -185.5 -55t-140 -174.5t-53.5 -313.5q0 -196 51.5 -314.5t136 -172
t182.5 -53.5q100 0 166.5 34.5t104 85t47.5 99.5v115h-315v198h551v-726h-152l-22 164q-10 -24 -52.5 -68.5t-126.5 -81t-219 -36.5zM409 1752h174l146 -128l146 128h176l-232 -198h-179z" />
    <glyph glyph-name="Gcircumflex" unicode="&#x11c;" horiz-adv-x="1413" 
d="M708 -22q-172 0 -312.5 88t-223.5 257t-83 411q0 243 86 413t232.5 259.5t327.5 89.5q150 0 254.5 -49.5t169.5 -127.5t95 -164t30 -160v-12h-256v12q0 69 -32.5 134t-97.5 106.5t-163 41.5q-99 0 -185.5 -55t-140 -174.5t-53.5 -313.5q0 -196 51.5 -314.5t136 -172
t182.5 -53.5q100 0 166.5 34.5t104 85t47.5 99.5v115h-315v198h551v-726h-152l-22 164q-10 -24 -52.5 -68.5t-126.5 -81t-219 -36.5zM409 1554l231 198h179l232 -198h-176l-146 127l-146 -127h-174z" />
    <glyph glyph-name="uni0122" unicode="&#x122;" horiz-adv-x="1413" 
d="M708 -22q-172 0 -312.5 88t-223.5 257t-83 411q0 243 86 413t232.5 259.5t327.5 89.5q150 0 254.5 -49.5t169.5 -127.5t95 -164t30 -160v-12h-256v12q0 69 -32.5 134t-97.5 106.5t-163 41.5q-99 0 -185.5 -55t-140 -174.5t-53.5 -313.5q0 -196 51.5 -314.5t136 -172
t182.5 -53.5q100 0 166.5 34.5t104 85t47.5 99.5v115h-315v198h551v-726h-152l-22 164q-10 -24 -52.5 -68.5t-126.5 -81t-219 -36.5zM702 -259q-43 0 -68.5 23t-25.5 62q0 48 35.5 70t77.5 22q40 0 78.5 -25.5t38.5 -88.5q0 -73 -30 -123.5t-72.5 -82t-80.5 -48.5l-18 45
q44 17 89.5 60.5t45.5 112.5q-7 -12 -27.5 -19.5t-42.5 -7.5z" />
    <glyph glyph-name="Gdotaccent" unicode="&#x120;" horiz-adv-x="1413" 
d="M708 -22q-172 0 -312.5 88t-223.5 257t-83 411q0 243 86 413t232.5 259.5t327.5 89.5q150 0 254.5 -49.5t169.5 -127.5t95 -164t30 -160v-12h-256v12q0 69 -32.5 134t-97.5 106.5t-163 41.5q-99 0 -185.5 -55t-140 -174.5t-53.5 -313.5q0 -196 51.5 -314.5t136 -172
t182.5 -53.5q100 0 166.5 34.5t104 85t47.5 99.5v115h-315v198h551v-726h-152l-22 164q-10 -24 -52.5 -68.5t-126.5 -81t-219 -36.5zM732 1565q-63 0 -110.5 34.5t-47.5 95.5q0 62 47.5 96t110.5 34q64 0 111 -34t47 -96t-47 -96t-111 -34z" />
    <glyph glyph-name="uni1E20" unicode="&#x1e20;" horiz-adv-x="1413" 
d="M708 -22q-172 0 -312.5 88t-223.5 257t-83 411q0 243 86 413t232.5 259.5t327.5 89.5q150 0 254.5 -49.5t169.5 -127.5t95 -164t30 -160v-12h-256v12q0 69 -32.5 134t-97.5 106.5t-163 41.5q-99 0 -185.5 -55t-140 -174.5t-53.5 -313.5q0 -196 51.5 -314.5t136 -172
t182.5 -53.5q100 0 166.5 34.5t104 85t47.5 99.5v115h-315v198h551v-726h-152l-22 164q-10 -24 -52.5 -68.5t-126.5 -81t-219 -36.5zM435 1610v111h588v-111h-588z" />
    <glyph glyph-name="uni01E4" unicode="&#x1e4;" horiz-adv-x="1383" 
d="M690 -22q-174 0 -310 88t-213.5 257t-77.5 411q0 243 82 413t224.5 259.5t321.5 89.5q150 0 254.5 -50.5t169.5 -128.5t95 -165t30 -161v-12h-256v12q0 69 -32.5 135t-97.5 108.5t-163 42.5q-99 0 -181.5 -55t-132 -174.5t-49.5 -313.5q0 -200 47.5 -318.5t128 -170
t178.5 -51.5q110 0 179.5 41.5t105.5 95.5h-283v149h316v88h-315v182h551v-270h115v-149h-115v-331h-152l-22 164q-10 -24 -52.5 -68.5t-126.5 -81t-219 -36.5z" />
    <glyph glyph-name="H" unicode="H" horiz-adv-x="1361" 
d="M1233 1475v-1475h-264v630h-576v-630h-264v1475h264v-635h576v635h264z" />
    <glyph glyph-name="Hbar" unicode="&#x126;" horiz-adv-x="1361" 
d="M40 1083v150h89v242h264v-242h576v242h264v-242h87v-150h-87v-1083h-264v630h-576v-630h-264v1083h-89zM393 840h576v243h-576v-243z" />
    <glyph glyph-name="uni1E2A" unicode="&#x1e2a;" horiz-adv-x="1361" 
d="M1233 1475v-1475h-264v630h-576v-630h-264v1475h264v-635h576v635h264zM407 -121h156q0 -61 31.5 -95t86.5 -34q54 0 85.5 34t31.5 95h156q0 -116 -78 -174t-195 -58q-118 0 -196 58t-78 174z" />
    <glyph glyph-name="Hcircumflex" unicode="&#x124;" horiz-adv-x="1361" 
d="M1233 1475v-1475h-264v630h-576v-630h-264v1475h264v-635h576v635h264zM360 1554l231 198h179l232 -198h-176l-146 127l-146 -127h-174z" />
    <glyph glyph-name="uni1E24" unicode="&#x1e24;" horiz-adv-x="1361" 
d="M1233 1475v-1475h-264v630h-576v-630h-264v1475h264v-635h576v635h264zM681 -389q-64 0 -111 34.5t-47 95.5q0 62 47 95.5t111 33.5q62 0 109.5 -33.5t47.5 -95.5t-47.5 -96t-109.5 -34z" />
    <glyph glyph-name="I" unicode="I" horiz-adv-x="522" 
d="M131 0v1475h260v-1475h-260z" />
    <glyph glyph-name="I.ss01" horiz-adv-x="1086" 
d="M103 0v210h308v1055h-308v210h880v-210h-308v-1055h308v-210h-880z" />
    <glyph glyph-name="Iacute" unicode="&#xcd;" horiz-adv-x="522" 
d="M131 0v1475h260v-1475h-260zM109 1556l276 198h220l-300 -198h-196z" />
    <glyph glyph-name="Iacute.ss01" horiz-adv-x="1086" 
d="M103 0v210h308v1055h-308v210h880v-210h-308v-1055h308v-210h-880zM391 1556l276 198h220l-300 -198h-196z" />
    <glyph glyph-name="Ibreve" unicode="&#x12c;" horiz-adv-x="522" 
d="M131 0v1475h260v-1475h-260zM-11 1734h156q0 -38 31.5 -66.5t85.5 -28.5q55 0 86 28.5t31 66.5h157q0 -88 -78.5 -143.5t-195.5 -55.5t-195 55.5t-78 143.5z" />
    <glyph glyph-name="Ibreve.ss01" horiz-adv-x="1086" 
d="M103 0v210h308v1055h-308v210h880v-210h-308v-1055h308v-210h-880zM270 1734h156q0 -38 31.5 -66.5t85.5 -28.5q55 0 86 28.5t31 66.5h157q0 -88 -78.5 -143.5t-195.5 -55.5t-195 55.5t-78 143.5z" />
    <glyph glyph-name="uni01CF" unicode="&#x1cf;" horiz-adv-x="522" 
d="M131 0v1475h260v-1475h-260zM-59 1752h174l146 -128l146 128h176l-232 -198h-179z" />
    <glyph glyph-name="uni01CF.ss01" horiz-adv-x="1086" 
d="M103 0v210h308v1055h-308v210h880v-210h-308v-1055h308v-210h-880zM223 1752h174l146 -128l146 128h176l-232 -198h-179z" />
    <glyph glyph-name="Icircumflex" unicode="&#xce;" horiz-adv-x="522" 
d="M131 0v1475h260v-1475h-260zM-59 1554l231 198h179l232 -198h-176l-146 127l-146 -127h-174z" />
    <glyph glyph-name="Icircumflex.ss01" horiz-adv-x="1086" 
d="M103 0v210h308v1055h-308v210h880v-210h-308v-1055h308v-210h-880zM223 1554l231 198h179l232 -198h-176l-146 127l-146 -127h-174z" />
    <glyph glyph-name="uni0208" unicode="&#x208;" horiz-adv-x="522" 
d="M131 0v1475h260v-1475h-260zM503 1555h-148l-205 200h171zM180 1555h-149l-224 200h172z" />
    <glyph glyph-name="uni0208.ss01" horiz-adv-x="1086" 
d="M103 0v210h308v1055h-308v210h880v-210h-308v-1055h308v-210h-880zM785 1555h-148l-205 200h171zM462 1555h-149l-224 200h172z" />
    <glyph glyph-name="Idieresis" unicode="&#xcf;" horiz-adv-x="522" 
d="M131 0v1475h260v-1475h-260zM94 1554q-59 0 -102.5 31.5t-43.5 88.5t43.5 88.5t102.5 31.5q57 0 101 -31.5t44 -88.5t-44 -88.5t-101 -31.5zM434 1554q-59 0 -102 31.5t-43 88.5t43 88.5t102 31.5q58 0 101.5 -31.5t43.5 -88.5t-43.5 -88.5t-101.5 -31.5z" />
    <glyph glyph-name="Idieresis.ss01" horiz-adv-x="1086" 
d="M103 0v210h308v1055h-308v210h880v-210h-308v-1055h308v-210h-880zM375 1554q-59 0 -102.5 31.5t-43.5 88.5t43.5 88.5t102.5 31.5q57 0 101 -31.5t44 -88.5t-44 -88.5t-101 -31.5zM715 1554q-59 0 -102 31.5t-43 88.5t43 88.5t102 31.5q58 0 101.5 -31.5t43.5 -88.5
t-43.5 -88.5t-101.5 -31.5z" />
    <glyph glyph-name="uni1E2E" unicode="&#x1e2e;" horiz-adv-x="522" 
d="M131 0v1475h260v-1475h-260zM94 1554q-59 0 -102.5 31.5t-43.5 88.5t43.5 88.5t102.5 31.5q57 0 101 -31.5t44 -88.5t-44 -88.5t-101 -31.5zM434 1554q-59 0 -102 31.5t-43 88.5t43 88.5t102 31.5q58 0 101.5 -31.5t43.5 -88.5t-43.5 -88.5t-101.5 -31.5zM114 1856
l276 198h220l-300 -198h-196z" />
    <glyph glyph-name="uni1E2E.ss01" horiz-adv-x="1086" 
d="M103 0v210h308v1055h-308v210h880v-210h-308v-1055h308v-210h-880zM375 1554q-59 0 -102.5 31.5t-43.5 88.5t43.5 88.5t102.5 31.5q57 0 101 -31.5t44 -88.5t-44 -88.5t-101 -31.5zM715 1554q-59 0 -102 31.5t-43 88.5t43 88.5t102 31.5q58 0 101.5 -31.5t43.5 -88.5
t-43.5 -88.5t-101.5 -31.5zM396 1856l276 198h220l-300 -198h-196z" />
    <glyph glyph-name="Idotaccent" unicode="&#x130;" horiz-adv-x="522" 
d="M131 0v1475h260v-1475h-260zM264 1565q-63 0 -110.5 34.5t-47.5 95.5q0 62 47.5 96t110.5 34q64 0 111 -34t47 -96t-47 -96t-111 -34z" />
    <glyph glyph-name="Idotaccent.ss01" horiz-adv-x="1086" 
d="M103 0v210h308v1055h-308v210h880v-210h-308v-1055h308v-210h-880zM546 1565q-63 0 -110.5 34.5t-47.5 95.5q0 62 47.5 96t110.5 34q64 0 111 -34t47 -96t-47 -96t-111 -34z" />
    <glyph glyph-name="uni1ECA" unicode="&#x1eca;" horiz-adv-x="522" 
d="M131 0v1475h260v-1475h-260zM262 -389q-64 0 -111 34.5t-47 95.5q0 62 47 95.5t111 33.5q62 0 109.5 -33.5t47.5 -95.5t-47.5 -96t-109.5 -34z" />
    <glyph glyph-name="uni1ECA.ss01" horiz-adv-x="1086" 
d="M103 0v210h308v1055h-308v210h880v-210h-308v-1055h308v-210h-880zM544 -389q-64 0 -111 34.5t-47 95.5q0 62 47 95.5t111 33.5q62 0 109.5 -33.5t47.5 -95.5t-47.5 -96t-109.5 -34z" />
    <glyph glyph-name="Igrave" unicode="&#xcc;" horiz-adv-x="522" 
d="M131 0v1475h260v-1475h-260zM417 1556h-195l-301 198h220z" />
    <glyph glyph-name="Igrave.ss01" horiz-adv-x="1086" 
d="M103 0v210h308v1055h-308v210h880v-210h-308v-1055h308v-210h-880zM699 1556h-195l-301 198h220z" />
    <glyph glyph-name="uni1EC8" unicode="&#x1ec8;" horiz-adv-x="522" 
d="M131 0v1475h260v-1475h-260zM49 1791q110 0 200.5 -8.5t144 -36t53.5 -85.5q0 -75 -79 -108.5t-190 -33.5l-28 72q33 2 72 7.5t67 18t28 34.5q0 35 -71.5 44.5t-196.5 9.5v86z" />
    <glyph glyph-name="uni1EC8.ss01" horiz-adv-x="1086" 
d="M103 0v210h308v1055h-308v210h880v-210h-308v-1055h308v-210h-880zM331 1791q110 0 200.5 -8.5t144 -36t53.5 -85.5q0 -75 -79 -108.5t-190 -33.5l-28 72q33 2 72 7.5t67 18t28 34.5q0 35 -71.5 44.5t-196.5 9.5v86z" />
    <glyph glyph-name="uni020A" unicode="&#x20a;" horiz-adv-x="522" 
d="M131 0v1475h260v-1475h-260zM-11 1548q0 88 78 141.5t195 53.5t195.5 -53.5t78.5 -141.5h-157q0 38 -31 64.5t-86 26.5q-54 0 -85.5 -26.5t-31.5 -64.5h-156z" />
    <glyph glyph-name="uni020A.ss01" horiz-adv-x="1086" 
d="M103 0v210h308v1055h-308v210h880v-210h-308v-1055h308v-210h-880zM270 1548q0 88 78 141.5t195 53.5t195.5 -53.5t78.5 -141.5h-157q0 38 -31 64.5t-86 26.5q-54 0 -85.5 -26.5t-31.5 -64.5h-156z" />
    <glyph glyph-name="Imacron" unicode="&#x12a;" horiz-adv-x="522" 
d="M131 0v1475h260v-1475h-260zM-33 1610v111h588v-111h-588z" />
    <glyph glyph-name="Imacron.ss01" horiz-adv-x="1086" 
d="M103 0v210h308v1055h-308v210h880v-210h-308v-1055h308v-210h-880zM332 1610v111h421v-111h-421z" />
    <glyph glyph-name="Iogonek" unicode="&#x12e;" horiz-adv-x="522" 
d="M131 0v1475h260v-1475h-260zM391 -309v-129q-20 -2 -44.5 -4t-49.5 -2q-93 0 -164.5 36.5t-71.5 123.5q0 57 33.5 112t79.5 100t83 72h134q-32 -27 -73.5 -71.5t-72.5 -91.5t-31 -81q0 -40 28.5 -56t70.5 -16q19 0 40 2t38 5z" />
    <glyph glyph-name="Iogonek.ss01" horiz-adv-x="1086" 
d="M103 0v210h308v1055h-308v210h880v-210h-308v-1055h308v-210h-880zM984 -309v-129q-20 -2 -44.5 -4t-49.5 -2q-93 0 -164.5 36.5t-71.5 123.5q0 57 33.5 112t79.5 100t83 72h134q-32 -27 -73.5 -71.5t-72.5 -91.5t-31 -81q0 -40 28.5 -56t70.5 -16q19 0 40 2t38 5z" />
    <glyph glyph-name="Itilde" unicode="&#x128;" horiz-adv-x="522" 
d="M131 0v1475h260v-1475h-260zM586 1749q-1 -44 -20.5 -91.5t-60.5 -80.5t-106 -33q-51 0 -86 20t-58 40q-22 18 -44.5 32.5t-51.5 14.5q-37 0 -52.5 -24.5t-16.5 -59.5h-139q2 46 23.5 94t64.5 80.5t109 32.5q48 0 82.5 -19.5t56.5 -38.5q23 -19 47 -34t50 -15
q35 0 48.5 23.5t15.5 58.5h138z" />
    <glyph glyph-name="Itilde.ss01" horiz-adv-x="1086" 
d="M103 0v210h308v1055h-308v210h880v-210h-308v-1055h308v-210h-880zM867 1749q-1 -44 -20.5 -91.5t-60.5 -80.5t-106 -33q-51 0 -86 20t-58 40q-22 18 -44.5 32.5t-51.5 14.5q-37 0 -52.5 -24.5t-16.5 -59.5h-139q2 46 23.5 94t64.5 80.5t109 32.5q48 0 82.5 -19.5
t56.5 -38.5q23 -19 47 -34t50 -15q35 0 48.5 23.5t15.5 58.5h138z" />
    <glyph glyph-name="J" unicode="J" horiz-adv-x="1139" 
d="M539 -22q-171 0 -275.5 62t-151.5 174t-47 261v64h261v-40q0 -83 19.5 -152.5t65.5 -111t128 -41.5q81 0 126.5 42t63.5 115.5t18 166.5v957h263v-993q0 -141 -42.5 -255t-145.5 -181.5t-283 -67.5z" />
    <glyph glyph-name="Jcircumflex" unicode="&#x134;" horiz-adv-x="1139" 
d="M539 -22q-171 0 -275.5 62t-151.5 174t-47 261v64h261v-40q0 -83 19.5 -152.5t65.5 -111t128 -41.5q81 0 126.5 42t63.5 115.5t18 166.5v957h263v-993q0 -141 -42.5 -255t-145.5 -181.5t-283 -67.5zM556 1554l231 198h179l232 -198h-176l-146 127l-146 -127h-174z" />
    <glyph glyph-name="K" unicode="K" horiz-adv-x="1272" 
d="M925 0l-390 628l-143 -191v-437h-263v1475h263v-681l510 681h282l-492 -651l524 -824h-291z" />
    <glyph glyph-name="uni01E8" unicode="&#x1e8;" horiz-adv-x="1272" 
d="M925 0l-390 628l-143 -191v-437h-263v1475h263v-681l510 681h282l-492 -651l524 -824h-291zM332 1752h174l146 -128l146 128h176l-232 -198h-179z" />
    <glyph glyph-name="uni0136" unicode="&#x136;" horiz-adv-x="1272" 
d="M925 0l-390 628l-143 -191v-437h-263v1475h263v-681l510 681h282l-492 -651l524 -824h-291zM623 -259q-43 0 -68.5 23t-25.5 62q0 48 35.5 70t77.5 22q40 0 78.5 -25.5t38.5 -88.5q0 -73 -30 -123.5t-72.5 -82t-80.5 -48.5l-18 45q44 17 89.5 60.5t45.5 112.5
q-7 -12 -27.5 -19.5t-42.5 -7.5z" />
    <glyph glyph-name="L" unicode="L" horiz-adv-x="1031" 
d="M129 0v1475h264v-1257h559v-218h-823z" />
    <glyph glyph-name="uni01C7" unicode="&#x1c7;" horiz-adv-x="2139" 
d="M129 0v1475h264v-1257h559v-218h-823zM1540 -22q-171 0 -275.5 62t-151.5 174t-47 261v64h261v-40q0 -83 19.5 -152.5t65.5 -111t128 -41.5q81 0 126.5 42t63.5 115.5t18 166.5v957h263v-993q0 -141 -42.5 -255t-145.5 -181.5t-283 -67.5z" />
    <glyph glyph-name="Lacute" unicode="&#x139;" horiz-adv-x="1031" 
d="M129 0v1475h264v-1257h559v-218h-823zM106 1556l276 198h220l-300 -198h-196z" />
    <glyph glyph-name="Lcaron" unicode="&#x13d;" horiz-adv-x="1031" 
d="M129 0v1475h264v-1257h559v-218h-823zM883 1475q0 -84 -9.5 -167.5t-21.5 -148.5t-19 -92h-124q6 28 13.5 91.5t13 146.5t5.5 170h142z" />
    <glyph glyph-name="uni013B" unicode="&#x13b;" horiz-adv-x="1031" 
d="M129 0v1475h264v-1257h559v-218h-823zM538 -259q-43 0 -68.5 23t-25.5 62q0 48 35.5 70t77.5 22q40 0 78.5 -25.5t38.5 -88.5q0 -73 -30 -123.5t-72.5 -82t-80.5 -48.5l-18 45q44 17 89.5 60.5t45.5 112.5q-7 -12 -27.5 -19.5t-42.5 -7.5z" />
    <glyph glyph-name="Ldot" unicode="&#x13f;" horiz-adv-x="1031" 
d="M129 0v1475h264v-1257h559v-218h-823zM776 662q-62 0 -105 43.5t-43 105.5q0 61 43 104.5t105 43.5q61 0 104.5 -43.5t43.5 -104.5q0 -62 -43.5 -105.5t-104.5 -43.5z" />
    <glyph glyph-name="uni1E36" unicode="&#x1e36;" horiz-adv-x="1031" 
d="M129 0v1475h264v-1257h559v-218h-823zM560 -389q-64 0 -111 34.5t-47 95.5q0 62 47 95.5t111 33.5q62 0 109.5 -33.5t47.5 -95.5t-47.5 -96t-109.5 -34z" />
    <glyph glyph-name="uni01C8" unicode="&#x1c8;" horiz-adv-x="1561" 
d="M129 0v1475h264v-1257h559v-218h-823zM1304 1258q-64 0 -111.5 34.5t-47.5 96.5q0 61 47.5 95t111.5 34q63 0 110.5 -34t47.5 -95q0 -62 -47.5 -96.5t-110.5 -34.5zM1002 -453q-58 0 -98 6v196q16 -4 42.5 -7t55.5 -3q74 0 109.5 27.5t46.5 67.5t11 80v1148h263v-1156
q0 -65 -15 -129t-59 -116t-129.5 -83t-226.5 -31z" />
    <glyph glyph-name="uni1E3A" unicode="&#x1e3a;" horiz-adv-x="1031" 
d="M129 0v1475h264v-1257h559v-218h-823zM247 -288v111h625v-111h-625z" />
    <glyph glyph-name="Lslash" unicode="&#x141;" horiz-adv-x="1122" 
d="M220 0v471l-144 -86l-90 181l234 139v770h265v-612l221 132l90 -181l-311 -186v-410h559v-218h-824z" />
    <glyph glyph-name="M" unicode="M" horiz-adv-x="1766" 
d="M1175 1475h448v-1475h-251v1281l-311 -1281h-352l-315 1283v-1283h-251v1475h448l291 -1292z" />
    <glyph glyph-name="uni1E42" unicode="&#x1e42;" horiz-adv-x="1766" 
d="M1175 1475h448v-1475h-251v1281l-311 -1281h-352l-315 1283v-1283h-251v1475h448l291 -1292zM883 -389q-64 0 -111 34.5t-47 95.5q0 62 47 95.5t111 33.5q62 0 109.5 -33.5t47.5 -95.5t-47.5 -96t-109.5 -34z" />
    <glyph glyph-name="N" unicode="N" horiz-adv-x="1427" 
d="M385 0h-256v1475h413l500 -1269v1269h257v-1475h-419l-495 1257v-1257z" />
    <glyph glyph-name="uni01CA" unicode="&#x1ca;" horiz-adv-x="2566" 
d="M385 0h-256v1475h413l500 -1269v1269h257v-1475h-419l-495 1257v-1257zM1966 -22q-171 0 -275.5 62t-151.5 174t-47 261v64h261v-40q0 -83 19.5 -152.5t65.5 -111t128 -41.5q81 0 126.5 42t63.5 115.5t18 166.5v957h263v-993q0 -141 -42.5 -255t-145.5 -181.5t-283 -67.5
z" />
    <glyph glyph-name="Nacute" unicode="&#x143;" horiz-adv-x="1427" 
d="M385 0h-256v1475h413l500 -1269v1269h257v-1475h-419l-495 1257v-1257zM576 1556l276 198h220l-300 -198h-196z" />
    <glyph glyph-name="Ncaron" unicode="&#x147;" horiz-adv-x="1427" 
d="M385 0h-256v1475h413l500 -1269v1269h257v-1475h-419l-495 1257v-1257zM407 1752h174l146 -128l146 128h176l-232 -198h-179z" />
    <glyph glyph-name="uni0145" unicode="&#x145;" horiz-adv-x="1427" 
d="M385 0h-256v1475h413l500 -1269v1269h257v-1475h-419l-495 1257v-1257zM707 -259q-43 0 -68.5 23t-25.5 62q0 48 35.5 70t77.5 22q40 0 78.5 -25.5t38.5 -88.5q0 -73 -30 -123.5t-72.5 -82t-80.5 -48.5l-18 45q44 17 89.5 60.5t45.5 112.5q-7 -12 -27.5 -19.5t-42.5 -7.5
z" />
    <glyph glyph-name="uni1E44" unicode="&#x1e44;" horiz-adv-x="1427" 
d="M385 0h-256v1475h413l500 -1269v1269h257v-1475h-419l-495 1257v-1257zM730 1565q-63 0 -110.5 34.5t-47.5 95.5q0 62 47.5 96t110.5 34q64 0 111 -34t47 -96t-47 -96t-111 -34z" />
    <glyph glyph-name="uni1E46" unicode="&#x1e46;" horiz-adv-x="1427" 
d="M385 0h-256v1475h413l500 -1269v1269h257v-1475h-419l-495 1257v-1257zM729 -389q-64 0 -111 34.5t-47 95.5q0 62 47 95.5t111 33.5q62 0 109.5 -33.5t47.5 -95.5t-47.5 -96t-109.5 -34z" />
    <glyph glyph-name="Eng" unicode="&#x14a;" horiz-adv-x="1427" 
d="M793 -457q-33 0 -65 4t-43 8v191q13 -4 46.5 -8.5t63.5 -4.5q120 0 181.5 61t61.5 152v54h-153l-500 1251v-1251h-256v1475h415l498 -1249v1249h257v-1523q0 -206 -116.5 -307.5t-389.5 -101.5z" />
    <glyph glyph-name="uni019D" unicode="&#x19d;" horiz-adv-x="1427" 
d="M-73 -465v189q110 3 156 69t46 161v1521h421l492 -1268v1268h257v-1475h-426l-488 1255v-1301q0 -73 -13.5 -146t-58.5 -134t-137 -98.5t-249 -40.5z" />
    <glyph glyph-name="uni01CB" unicode="&#x1cb;" horiz-adv-x="1917" 
d="M385 0h-256v1475h413l500 -1269v1269h257v-1475h-419l-495 1257v-1257zM1659 1258q-64 0 -111.5 34.5t-47.5 96.5q0 61 47.5 95t111.5 34q63 0 110.5 -34t47.5 -95q0 -62 -47.5 -96.5t-110.5 -34.5zM1357 -453q-58 0 -98 6v196q16 -4 42.5 -7t55.5 -3q74 0 109.5 27.5
t46.5 67.5t11 80v1148h263v-1156q0 -65 -15 -129t-59 -116t-129.5 -83t-226.5 -31z" />
    <glyph glyph-name="uni1E48" unicode="&#x1e48;" horiz-adv-x="1427" 
d="M385 0h-256v1475h413l500 -1269v1269h257v-1475h-419l-495 1257v-1257zM416 -288v111h625v-111h-625z" />
    <glyph glyph-name="Ntilde" unicode="&#xd1;" horiz-adv-x="1427" 
d="M385 0h-256v1475h413l500 -1269v1269h257v-1475h-419l-495 1257v-1257zM1052 1749q-1 -44 -20.5 -91.5t-60.5 -80.5t-106 -33q-51 0 -86 20t-58 40q-22 18 -44.5 32.5t-51.5 14.5q-37 0 -52.5 -24.5t-16.5 -59.5h-139q2 46 23.5 94t64.5 80.5t109 32.5q48 0 82.5 -19.5
t56.5 -38.5q23 -19 47 -34t50 -15q35 0 48.5 23.5t15.5 58.5h138z" />
    <glyph glyph-name="O" unicode="O" horiz-adv-x="1455" 
d="M727 -22q-179 0 -323.5 88.5t-229.5 258.5t-85 414t84.5 413t229.5 256.5t324 87.5q181 0 326 -87.5t229.5 -256.5t84.5 -413t-85.5 -414t-230.5 -258.5t-324 -88.5zM727 195q104 0 188 56t133.5 176.5t49.5 311.5q0 192 -50 310.5t-134 173.5t-187 55q-102 0 -186 -55
t-134.5 -173.5t-50.5 -310.5t50.5 -312t134.5 -176t186 -56z" />
    <glyph glyph-name="Oacute" unicode="&#xd3;" horiz-adv-x="1455" 
d="M727 -22q-179 0 -323.5 88.5t-229.5 258.5t-85 414t84.5 413t229.5 256.5t324 87.5q181 0 326 -87.5t229.5 -256.5t84.5 -413t-85.5 -414t-230.5 -258.5t-324 -88.5zM727 195q104 0 188 56t133.5 176.5t49.5 311.5q0 192 -50 310.5t-134 173.5t-187 55q-102 0 -186 -55
t-134.5 -173.5t-50.5 -310.5t50.5 -312t134.5 -176t186 -56zM575 1556l276 198h220l-300 -198h-196z" />
    <glyph glyph-name="Obreve" unicode="&#x14e;" horiz-adv-x="1455" 
d="M727 -22q-179 0 -323.5 88.5t-229.5 258.5t-85 414t84.5 413t229.5 256.5t324 87.5q181 0 326 -87.5t229.5 -256.5t84.5 -413t-85.5 -414t-230.5 -258.5t-324 -88.5zM727 195q104 0 188 56t133.5 176.5t49.5 311.5q0 192 -50 310.5t-134 173.5t-187 55q-102 0 -186 -55
t-134.5 -173.5t-50.5 -310.5t50.5 -312t134.5 -176t186 -56zM454 1734h156q0 -38 31.5 -66.5t85.5 -28.5q55 0 86 28.5t31 66.5h157q0 -88 -78.5 -143.5t-195.5 -55.5t-195 55.5t-78 143.5z" />
    <glyph glyph-name="uni01D1" unicode="&#x1d1;" horiz-adv-x="1455" 
d="M727 -22q-179 0 -323.5 88.5t-229.5 258.5t-85 414t84.5 413t229.5 256.5t324 87.5q181 0 326 -87.5t229.5 -256.5t84.5 -413t-85.5 -414t-230.5 -258.5t-324 -88.5zM727 195q104 0 188 56t133.5 176.5t49.5 311.5q0 192 -50 310.5t-134 173.5t-187 55q-102 0 -186 -55
t-134.5 -173.5t-50.5 -310.5t50.5 -312t134.5 -176t186 -56zM407 1752h174l146 -128l146 128h176l-232 -198h-179z" />
    <glyph glyph-name="Ocircumflex" unicode="&#xd4;" horiz-adv-x="1455" 
d="M727 -22q-179 0 -323.5 88.5t-229.5 258.5t-85 414t84.5 413t229.5 256.5t324 87.5q181 0 326 -87.5t229.5 -256.5t84.5 -413t-85.5 -414t-230.5 -258.5t-324 -88.5zM727 195q104 0 188 56t133.5 176.5t49.5 311.5q0 192 -50 310.5t-134 173.5t-187 55q-102 0 -186 -55
t-134.5 -173.5t-50.5 -310.5t50.5 -312t134.5 -176t186 -56zM407 1554l231 198h179l232 -198h-176l-146 127l-146 -127h-174z" />
    <glyph glyph-name="uni1ED0" unicode="&#x1ed0;" horiz-adv-x="1455" 
d="M727 -22q-179 0 -323.5 88.5t-229.5 258.5t-85 414t84.5 413t229.5 256.5t324 87.5q181 0 326 -87.5t229.5 -256.5t84.5 -413t-85.5 -414t-230.5 -258.5t-324 -88.5zM727 195q104 0 188 56t133.5 176.5t49.5 311.5q0 192 -50 310.5t-134 173.5t-187 55q-102 0 -186 -55
t-134.5 -173.5t-50.5 -310.5t50.5 -312t134.5 -176t186 -56zM939 1708l222 199h183l-237 -199h-168zM406 1554l231 198h180l231 -198h-175l-146 127l-146 -127h-175z" />
    <glyph glyph-name="uni1ED8" unicode="&#x1ed8;" horiz-adv-x="1455" 
d="M727 -22q-179 0 -323.5 88.5t-229.5 258.5t-85 414t84.5 413t229.5 256.5t324 87.5q181 0 326 -87.5t229.5 -256.5t84.5 -413t-85.5 -414t-230.5 -258.5t-324 -88.5zM727 195q104 0 188 56t133.5 176.5t49.5 311.5q0 192 -50 310.5t-134 173.5t-187 55q-102 0 -186 -55
t-134.5 -173.5t-50.5 -310.5t50.5 -312t134.5 -176t186 -56zM728 -389q-64 0 -111 34.5t-47 95.5q0 62 47 95.5t111 33.5q62 0 109.5 -33.5t47.5 -95.5t-47.5 -96t-109.5 -34zM407 1554l231 198h179l232 -198h-176l-146 127l-146 -127h-174z" />
    <glyph glyph-name="uni1ED2" unicode="&#x1ed2;" horiz-adv-x="1455" 
d="M727 -22q-179 0 -323.5 88.5t-229.5 258.5t-85 414t84.5 413t229.5 256.5t324 87.5q181 0 326 -87.5t229.5 -256.5t84.5 -413t-85.5 -414t-230.5 -258.5t-324 -88.5zM727 195q104 0 188 56t133.5 176.5t49.5 311.5q0 192 -50 310.5t-134 173.5t-187 55q-102 0 -186 -55
t-134.5 -173.5t-50.5 -310.5t50.5 -312t134.5 -176t186 -56zM1199 1708h-168l-237 199h183zM409 1554l231 198h179l232 -198h-176l-146 127l-146 -127h-174z" />
    <glyph glyph-name="uni1ED4" unicode="&#x1ed4;" horiz-adv-x="1455" 
d="M727 -22q-179 0 -323.5 88.5t-229.5 258.5t-85 414t84.5 413t229.5 256.5t324 87.5q181 0 326 -87.5t229.5 -256.5t84.5 -413t-85.5 -414t-230.5 -258.5t-324 -88.5zM727 195q104 0 188 56t133.5 176.5t49.5 311.5q0 192 -50 310.5t-134 173.5t-187 55q-102 0 -186 -55
t-134.5 -173.5t-50.5 -310.5t50.5 -312t134.5 -176t186 -56zM835 1976q110 0 200.5 -9t144.5 -36.5t54 -84.5q0 -75 -79 -109t-190 -34l-29 73q33 1 72 6.5t67 18t28 35.5q0 35 -71.5 44.5t-196.5 9.5v86zM408 1554l231 198h179l232 -198h-176l-146 127l-146 -127h-174z" />
    <glyph glyph-name="uni1ED6" unicode="&#x1ed6;" horiz-adv-x="1455" 
d="M727 -22q-179 0 -323.5 88.5t-229.5 258.5t-85 414t84.5 413t229.5 256.5t324 87.5q181 0 326 -87.5t229.5 -256.5t84.5 -413t-85.5 -414t-230.5 -258.5t-324 -88.5zM727 195q104 0 188 56t133.5 176.5t49.5 311.5q0 192 -50 310.5t-134 173.5t-187 55q-102 0 -186 -55
t-134.5 -173.5t-50.5 -310.5t50.5 -312t134.5 -176t186 -56zM407 1554l231 198h179l232 -198h-176l-146 127l-146 -127h-174zM1051 2026q-1 -44 -20.5 -91.5t-60.5 -80.5t-106 -33q-51 0 -86 20t-58 40q-22 18 -44.5 32.5t-51.5 14.5q-37 0 -52.5 -24.5t-16.5 -59.5h-139
q2 46 23.5 94t64.5 80.5t109 32.5q48 0 82.5 -19.5t56.5 -38.5q23 -19 47 -34t50 -15q35 0 48.5 23.5t15.5 58.5h138z" />
    <glyph glyph-name="uni020C" unicode="&#x20c;" horiz-adv-x="1455" 
d="M727 -22q-179 0 -323.5 88.5t-229.5 258.5t-85 414t84.5 413t229.5 256.5t324 87.5q181 0 326 -87.5t229.5 -256.5t84.5 -413t-85.5 -414t-230.5 -258.5t-324 -88.5zM727 195q104 0 188 56t133.5 176.5t49.5 311.5q0 192 -50 310.5t-134 173.5t-187 55q-102 0 -186 -55
t-134.5 -173.5t-50.5 -310.5t50.5 -312t134.5 -176t186 -56zM969 1555h-148l-205 200h171zM646 1555h-149l-224 200h172z" />
    <glyph glyph-name="Odieresis" unicode="&#xd6;" horiz-adv-x="1455" 
d="M727 -22q-179 0 -323.5 88.5t-229.5 258.5t-85 414t84.5 413t229.5 256.5t324 87.5q181 0 326 -87.5t229.5 -256.5t84.5 -413t-85.5 -414t-230.5 -258.5t-324 -88.5zM727 195q104 0 188 56t133.5 176.5t49.5 311.5q0 192 -50 310.5t-134 173.5t-187 55q-102 0 -186 -55
t-134.5 -173.5t-50.5 -310.5t50.5 -312t134.5 -176t186 -56zM502 1549q-58 0 -101.5 31.5t-43.5 88.5t43.5 88t101.5 31t102 -31t44 -88t-44 -88.5t-102 -31.5zM954 1549q-59 0 -102 31.5t-43 88.5t43 88t102 31q58 0 101.5 -31t43.5 -88t-43.5 -88.5t-101.5 -31.5z" />
    <glyph glyph-name="uni022A" unicode="&#x22a;" horiz-adv-x="1455" 
d="M727 -22q-179 0 -323.5 88.5t-229.5 258.5t-85 414t84.5 413t229.5 256.5t324 87.5q181 0 326 -87.5t229.5 -256.5t84.5 -413t-85.5 -414t-230.5 -258.5t-324 -88.5zM727 195q104 0 188 56t133.5 176.5t49.5 311.5q0 192 -50 310.5t-134 173.5t-187 55q-102 0 -186 -55
t-134.5 -173.5t-50.5 -310.5t50.5 -312t134.5 -176t186 -56zM502 1549q-58 0 -101.5 31.5t-43.5 88.5t43.5 88t101.5 31t102 -31t44 -88t-44 -88.5t-102 -31.5zM954 1549q-59 0 -102 31.5t-43 88.5t43 88t102 31q58 0 101.5 -31t43.5 -88t-43.5 -88.5t-101.5 -31.5z
M433 1891v111h588v-111h-588z" />
    <glyph glyph-name="uni0230" unicode="&#x230;" horiz-adv-x="1455" 
d="M727 -22q-179 0 -323.5 88.5t-229.5 258.5t-85 414t84.5 413t229.5 256.5t324 87.5q181 0 326 -87.5t229.5 -256.5t84.5 -413t-85.5 -414t-230.5 -258.5t-324 -88.5zM727 195q104 0 188 56t133.5 176.5t49.5 311.5q0 192 -50 310.5t-134 173.5t-187 55q-102 0 -186 -55
t-134.5 -173.5t-50.5 -310.5t50.5 -312t134.5 -176t186 -56zM730 1565q-63 0 -110.5 34.5t-47.5 95.5q0 62 47.5 96t110.5 34q64 0 111 -34t47 -96t-47 -96t-111 -34zM435 1960v111h588v-111h-588z" />
    <glyph glyph-name="uni1ECC" unicode="&#x1ecc;" horiz-adv-x="1455" 
d="M727 -22q-179 0 -323.5 88.5t-229.5 258.5t-85 414t84.5 413t229.5 256.5t324 87.5q181 0 326 -87.5t229.5 -256.5t84.5 -413t-85.5 -414t-230.5 -258.5t-324 -88.5zM727 195q104 0 188 56t133.5 176.5t49.5 311.5q0 192 -50 310.5t-134 173.5t-187 55q-102 0 -186 -55
t-134.5 -173.5t-50.5 -310.5t50.5 -312t134.5 -176t186 -56zM728 -389q-64 0 -111 34.5t-47 95.5q0 62 47 95.5t111 33.5q62 0 109.5 -33.5t47.5 -95.5t-47.5 -96t-109.5 -34z" />
    <glyph glyph-name="Ograve" unicode="&#xd2;" horiz-adv-x="1455" 
d="M727 -22q-179 0 -323.5 88.5t-229.5 258.5t-85 414t84.5 413t229.5 256.5t324 87.5q181 0 326 -87.5t229.5 -256.5t84.5 -413t-85.5 -414t-230.5 -258.5t-324 -88.5zM727 195q104 0 188 56t133.5 176.5t49.5 311.5q0 192 -50 310.5t-134 173.5t-187 55q-102 0 -186 -55
t-134.5 -173.5t-50.5 -310.5t50.5 -312t134.5 -176t186 -56zM883 1556h-195l-301 198h220z" />
    <glyph glyph-name="uni1ECE" unicode="&#x1ece;" horiz-adv-x="1455" 
d="M727 -22q-179 0 -323.5 88.5t-229.5 258.5t-85 414t84.5 413t229.5 256.5t324 87.5q181 0 326 -87.5t229.5 -256.5t84.5 -413t-85.5 -414t-230.5 -258.5t-324 -88.5zM727 195q104 0 188 56t133.5 176.5t49.5 311.5q0 192 -50 310.5t-134 173.5t-187 55q-102 0 -186 -55
t-134.5 -173.5t-50.5 -310.5t50.5 -312t134.5 -176t186 -56zM515 1791q110 0 200.5 -8.5t144 -36t53.5 -85.5q0 -75 -79 -108.5t-190 -33.5l-28 72q33 2 72 7.5t67 18t28 34.5q0 35 -71.5 44.5t-196.5 9.5v86z" />
    <glyph glyph-name="Ohorn" unicode="&#x1a0;" horiz-adv-x="1463" 
d="M727 -22q-179 0 -323.5 88.5t-229.5 258.5t-85 414t84.5 413t229.5 256.5t324 87.5q219 0 379 -124q147 12 147 258h165q0 -155 -53.5 -245.5t-149.5 -123.5q71 -95 111.5 -226t40.5 -296q0 -244 -85.5 -414t-230.5 -258.5t-324 -88.5zM727 195q104 0 188 56t133.5 176.5
t49.5 311.5q0 192 -50 310.5t-134 173.5t-187 55q-102 0 -186 -55t-134.5 -173.5t-50.5 -310.5t50.5 -312t134.5 -176t186 -56z" />
    <glyph glyph-name="uni1EDA" unicode="&#x1eda;" horiz-adv-x="1463" 
d="M727 -22q-179 0 -323.5 88.5t-229.5 258.5t-85 414t84.5 413t229.5 256.5t324 87.5q219 0 379 -124q147 12 147 258h165q0 -155 -53.5 -245.5t-149.5 -123.5q71 -95 111.5 -226t40.5 -296q0 -244 -85.5 -414t-230.5 -258.5t-324 -88.5zM727 195q104 0 188 56t133.5 176.5
t49.5 311.5q0 192 -50 310.5t-134 173.5t-187 55q-102 0 -186 -55t-134.5 -173.5t-50.5 -310.5t50.5 -312t134.5 -176t186 -56zM576 1556l276 198h220l-300 -198h-196z" />
    <glyph glyph-name="uni1EE2" unicode="&#x1ee2;" horiz-adv-x="1463" 
d="M727 -22q-179 0 -323.5 88.5t-229.5 258.5t-85 414t84.5 413t229.5 256.5t324 87.5q219 0 379 -124q147 12 147 258h165q0 -155 -53.5 -245.5t-149.5 -123.5q71 -95 111.5 -226t40.5 -296q0 -244 -85.5 -414t-230.5 -258.5t-324 -88.5zM727 195q104 0 188 56t133.5 176.5
t49.5 311.5q0 192 -50 310.5t-134 173.5t-187 55q-102 0 -186 -55t-134.5 -173.5t-50.5 -310.5t50.5 -312t134.5 -176t186 -56zM728 -389q-64 0 -111 34.5t-47 95.5q0 62 47 95.5t111 33.5q62 0 109.5 -33.5t47.5 -95.5t-47.5 -96t-109.5 -34z" />
    <glyph glyph-name="uni1EDC" unicode="&#x1edc;" horiz-adv-x="1463" 
d="M727 -22q-179 0 -323.5 88.5t-229.5 258.5t-85 414t84.5 413t229.5 256.5t324 87.5q219 0 379 -124q147 12 147 258h165q0 -155 -53.5 -245.5t-149.5 -123.5q71 -95 111.5 -226t40.5 -296q0 -244 -85.5 -414t-230.5 -258.5t-324 -88.5zM727 195q104 0 188 56t133.5 176.5
t49.5 311.5q0 192 -50 310.5t-134 173.5t-187 55q-102 0 -186 -55t-134.5 -173.5t-50.5 -310.5t50.5 -312t134.5 -176t186 -56zM883 1556h-195l-301 198h220z" />
    <glyph glyph-name="uni1EDE" unicode="&#x1ede;" horiz-adv-x="1463" 
d="M727 -22q-179 0 -323.5 88.5t-229.5 258.5t-85 414t84.5 413t229.5 256.5t324 87.5q219 0 379 -124q147 12 147 258h165q0 -155 -53.5 -245.5t-149.5 -123.5q71 -95 111.5 -226t40.5 -296q0 -244 -85.5 -414t-230.5 -258.5t-324 -88.5zM727 195q104 0 188 56t133.5 176.5
t49.5 311.5q0 192 -50 310.5t-134 173.5t-187 55q-102 0 -186 -55t-134.5 -173.5t-50.5 -310.5t50.5 -312t134.5 -176t186 -56zM515 1791q110 0 200.5 -8.5t144 -36t53.5 -85.5q0 -75 -79 -108.5t-190 -33.5l-28 72q33 2 72 7.5t67 18t28 34.5q0 35 -71.5 44.5t-196.5 9.5
v86z" />
    <glyph glyph-name="uni1EE0" unicode="&#x1ee0;" horiz-adv-x="1463" 
d="M727 -22q-179 0 -323.5 88.5t-229.5 258.5t-85 414t84.5 413t229.5 256.5t324 87.5q219 0 379 -124q147 12 147 258h165q0 -155 -53.5 -245.5t-149.5 -123.5q71 -95 111.5 -226t40.5 -296q0 -244 -85.5 -414t-230.5 -258.5t-324 -88.5zM727 195q104 0 188 56t133.5 176.5
t49.5 311.5q0 192 -50 310.5t-134 173.5t-187 55q-102 0 -186 -55t-134.5 -173.5t-50.5 -310.5t50.5 -312t134.5 -176t186 -56zM1052 1749q-1 -44 -20.5 -91.5t-60.5 -80.5t-106 -33q-51 0 -86 20t-58 40q-22 18 -44.5 32.5t-51.5 14.5q-37 0 -52.5 -24.5t-16.5 -59.5h-139
q2 46 23.5 94t64.5 80.5t109 32.5q48 0 82.5 -19.5t56.5 -38.5q23 -19 47 -34t50 -15q35 0 48.5 23.5t15.5 58.5h138z" />
    <glyph glyph-name="Ohungarumlaut" unicode="&#x150;" horiz-adv-x="1455" 
d="M727 -22q-179 0 -323.5 88.5t-229.5 258.5t-85 414t84.5 413t229.5 256.5t324 87.5q181 0 326 -87.5t229.5 -256.5t84.5 -413t-85.5 -414t-230.5 -258.5t-324 -88.5zM727 195q104 0 188 56t133.5 176.5t49.5 311.5q0 192 -50 310.5t-134 173.5t-187 55q-102 0 -186 -55
t-134.5 -173.5t-50.5 -310.5t50.5 -312t134.5 -176t186 -56zM483 1556l239 198h179l-261 -198h-157zM806 1556l239 198h178l-261 -198h-156z" />
    <glyph glyph-name="uni020E" unicode="&#x20e;" horiz-adv-x="1455" 
d="M727 -22q-179 0 -323.5 88.5t-229.5 258.5t-85 414t84.5 413t229.5 256.5t324 87.5q181 0 326 -87.5t229.5 -256.5t84.5 -413t-85.5 -414t-230.5 -258.5t-324 -88.5zM727 195q104 0 188 56t133.5 176.5t49.5 311.5q0 192 -50 310.5t-134 173.5t-187 55q-102 0 -186 -55
t-134.5 -173.5t-50.5 -310.5t50.5 -312t134.5 -176t186 -56zM454 1548q0 88 78 141.5t195 53.5t195.5 -53.5t78.5 -141.5h-157q0 38 -31 64.5t-86 26.5q-54 0 -85.5 -26.5t-31.5 -64.5h-156z" />
    <glyph glyph-name="Omacron" unicode="&#x14c;" horiz-adv-x="1455" 
d="M727 -22q-179 0 -323.5 88.5t-229.5 258.5t-85 414t84.5 413t229.5 256.5t324 87.5q181 0 326 -87.5t229.5 -256.5t84.5 -413t-85.5 -414t-230.5 -258.5t-324 -88.5zM727 195q104 0 188 56t133.5 176.5t49.5 311.5q0 192 -50 310.5t-134 173.5t-187 55q-102 0 -186 -55
t-134.5 -173.5t-50.5 -310.5t50.5 -312t134.5 -176t186 -56zM433 1610v111h588v-111h-588z" />
    <glyph glyph-name="uni1E52" unicode="&#x1e52;" horiz-adv-x="1455" 
d="M727 -22q-179 0 -323.5 88.5t-229.5 258.5t-85 414t84.5 413t229.5 256.5t324 87.5q181 0 326 -87.5t229.5 -256.5t84.5 -413t-85.5 -414t-230.5 -258.5t-324 -88.5zM727 195q104 0 188 56t133.5 176.5t49.5 311.5q0 192 -50 310.5t-134 173.5t-187 55q-102 0 -186 -55
t-134.5 -173.5t-50.5 -310.5t50.5 -312t134.5 -176t186 -56zM433 1610v111h588v-111h-588zM575 1802l276 198h220l-300 -198h-196z" />
    <glyph glyph-name="uni1E50" unicode="&#x1e50;" horiz-adv-x="1455" 
d="M727 -22q-179 0 -323.5 88.5t-229.5 258.5t-85 414t84.5 413t229.5 256.5t324 87.5q181 0 326 -87.5t229.5 -256.5t84.5 -413t-85.5 -414t-230.5 -258.5t-324 -88.5zM727 195q104 0 188 56t133.5 176.5t49.5 311.5q0 192 -50 310.5t-134 173.5t-187 55q-102 0 -186 -55
t-134.5 -173.5t-50.5 -310.5t50.5 -312t134.5 -176t186 -56zM433 1610v111h588v-111h-588zM883 1802h-195l-301 198h220z" />
    <glyph glyph-name="uni01EA" unicode="&#x1ea;" horiz-adv-x="1455" 
d="M727 -22q-179 0 -323.5 88.5t-229.5 258.5t-85 414t84.5 413t229.5 256.5t324 87.5q181 0 326 -87.5t229.5 -256.5t84.5 -413q0 -286 -117 -470t-301 -253q-31 -30 -65.5 -69.5t-57.5 -78.5t-23 -69q0 -40 28 -56t70 -16q19 0 40 2.5t38 4.5v-128q-20 -3 -44.5 -5
t-48.5 -2q-94 0 -165.5 36.5t-71.5 124.5q0 59 37 116.5t83 102.5q-21 -1 -42 -1zM727 195q104 0 188 56t133.5 176.5t49.5 311.5q0 192 -50 310.5t-134 173.5t-187 55q-102 0 -186 -55t-134.5 -173.5t-50.5 -310.5t50.5 -312t134.5 -176t186 -56z" />
    <glyph glyph-name="Oslash" unicode="&#xd8;" horiz-adv-x="1455" 
d="M727 -22q-175 0 -315 83l-96 -158l-137 78l108 179q-92 97 -145 243t-53 336q0 244 84.5 413t229.5 256.5t324 87.5q175 0 314 -81l95 158l139 -78l-107 -178q92 -97 145.5 -242t53.5 -336q0 -244 -85.5 -414t-230.5 -258.5t-324 -88.5zM356 739q0 -112 18 -199t51 -151
l498 829q-83 60 -196 60q-102 0 -186 -55t-134.5 -173.5t-50.5 -310.5zM727 195q104 0 188 56t133.5 176.5t49.5 311.5q0 112 -18 199t-50 150l-500 -830q84 -63 197 -63z" />
    <glyph glyph-name="Oslashacute" unicode="&#x1fe;" horiz-adv-x="1455" 
d="M727 -22q-175 0 -315 83l-96 -158l-137 78l108 179q-92 97 -145 243t-53 336q0 244 84.5 413t229.5 256.5t324 87.5q175 0 314 -81l95 158l139 -78l-107 -178q92 -97 145.5 -242t53.5 -336q0 -244 -85.5 -414t-230.5 -258.5t-324 -88.5zM356 739q0 -112 18 -199t51 -151
l498 829q-83 60 -196 60q-102 0 -186 -55t-134.5 -173.5t-50.5 -310.5zM727 195q104 0 188 56t133.5 176.5t49.5 311.5q0 112 -18 199t-50 150l-500 -830q84 -63 197 -63zM567 1556l276 198h220l-300 -198h-196z" />
    <glyph glyph-name="Otilde" unicode="&#xd5;" horiz-adv-x="1455" 
d="M727 -22q-179 0 -323.5 88.5t-229.5 258.5t-85 414t84.5 413t229.5 256.5t324 87.5q181 0 326 -87.5t229.5 -256.5t84.5 -413t-85.5 -414t-230.5 -258.5t-324 -88.5zM727 195q104 0 188 56t133.5 176.5t49.5 311.5q0 192 -50 310.5t-134 173.5t-187 55q-102 0 -186 -55
t-134.5 -173.5t-50.5 -310.5t50.5 -312t134.5 -176t186 -56zM1051 1749q-1 -44 -20.5 -91.5t-60.5 -80.5t-106 -33q-51 0 -86 20t-58 40q-22 18 -44.5 32.5t-51.5 14.5q-37 0 -52.5 -24.5t-16.5 -59.5h-139q2 46 23.5 94t64.5 80.5t109 32.5q48 0 82.5 -19.5t56.5 -38.5
q23 -19 47 -34t50 -15q35 0 48.5 23.5t15.5 58.5h138z" />
    <glyph glyph-name="uni1E4C" unicode="&#x1e4c;" horiz-adv-x="1455" 
d="M727 -22q-179 0 -323.5 88.5t-229.5 258.5t-85 414t84.5 413t229.5 256.5t324 87.5q181 0 326 -87.5t229.5 -256.5t84.5 -413t-85.5 -414t-230.5 -258.5t-324 -88.5zM727 195q104 0 188 56t133.5 176.5t49.5 311.5q0 192 -50 310.5t-134 173.5t-187 55q-102 0 -186 -55
t-134.5 -173.5t-50.5 -310.5t50.5 -312t134.5 -176t186 -56zM1038.58 1738.07q-0.961914 -42.3164 -19.7158 -87.998q-18.7539 -45.6826 -58.1846 -77.4199t-101.943 -31.7373q-49.0479 0 -82.709 19.2354q-33.6602 19.2344 -55.7803 38.4688
q-21.1582 17.3115 -42.7969 31.2568q-21.6387 13.9443 -49.5293 13.9443q-35.584 0 -50.4912 -23.5615q-14.9062 -23.5625 -15.8682 -57.2236h-133.681q1.92383 44.2402 22.6006 90.4033q20.6777 46.1631 62.0322 77.4189q41.3535 31.2559 104.828 31.2559
q46.1631 0 79.3428 -18.7529q33.1797 -18.7539 54.3379 -37.0273q22.1201 -18.2725 45.2012 -32.6982q23.082 -14.4268 48.0869 -14.4268q33.6602 0 46.6436 22.6016q12.9834 22.6006 14.9072 56.2607h132.719zM584.692 1840.12l256.51 184.018h204.464l-278.814 -184.018
h-182.159z" />
    <glyph glyph-name="uni1E4E" unicode="&#x1e4e;" horiz-adv-x="1455" 
d="M727 -22q-179 0 -323.5 88.5t-229.5 258.5t-85 414t84.5 413t229.5 256.5t324 87.5q181 0 326 -87.5t229.5 -256.5t84.5 -413t-85.5 -414t-230.5 -258.5t-324 -88.5zM727 195q104 0 188 56t133.5 176.5t49.5 311.5q0 192 -50 310.5t-134 173.5t-187 55q-102 0 -186 -55
t-134.5 -173.5t-50.5 -310.5t50.5 -312t134.5 -176t186 -56zM1051 1749q-1 -44 -20.5 -91.5t-60.5 -80.5t-106 -33q-51 0 -86 20t-58 40q-22 18 -44.5 32.5t-51.5 14.5q-37 0 -52.5 -24.5t-16.5 -59.5h-139q2 46 23.5 94t64.5 80.5t109 32.5q48 0 82.5 -19.5t56.5 -38.5
q23 -19 47 -34t50 -15q35 0 48.5 23.5t15.5 58.5h138zM502 1849q-58 0 -101.5 31.5t-43.5 88.5t43.5 88t101.5 31t102 -31t44 -88t-44 -88.5t-102 -31.5zM954 1849q-59 0 -102 31.5t-43 88.5t43 88t102 31q58 0 101.5 -31t43.5 -88t-43.5 -88.5t-101.5 -31.5z" />
    <glyph glyph-name="uni022C" unicode="&#x22c;" horiz-adv-x="1455" 
d="M727 -22q-179 0 -323.5 88.5t-229.5 258.5t-85 414t84.5 413t229.5 256.5t324 87.5q181 0 326 -87.5t229.5 -256.5t84.5 -413t-85.5 -414t-230.5 -258.5t-324 -88.5zM727 195q104 0 188 56t133.5 176.5t49.5 311.5q0 192 -50 310.5t-134 173.5t-187 55q-102 0 -186 -55
t-134.5 -173.5t-50.5 -310.5t50.5 -312t134.5 -176t186 -56zM1051 1749q-1 -44 -20.5 -91.5t-60.5 -80.5t-106 -33q-51 0 -86 20t-58 40q-22 18 -44.5 32.5t-51.5 14.5q-37 0 -52.5 -24.5t-16.5 -59.5h-139q2 46 23.5 94t64.5 80.5t109 32.5q48 0 82.5 -19.5t56.5 -38.5
q23 -19 47 -34t50 -15q35 0 48.5 23.5t15.5 58.5h138zM433 1910v111h588v-111h-588z" />
    <glyph glyph-name="OE" unicode="&#x152;" horiz-adv-x="2079" 
d="M713 -22q-179 0 -320 88.5t-222.5 258.5t-81.5 414t81 413t222.5 256.5t320.5 87.5q127 0 224 -44.5t147 -109.5v133h867v-210h-614v-420h527v-210h-527v-425h614v-210h-867v144q-50 -70 -147 -118t-224 -48zM713 195q104 0 187.5 56t132.5 176.5t49 311.5
q0 192 -49.5 310.5t-133 173.5t-186.5 55q-102 0 -182.5 -55t-127.5 -173.5t-47 -310.5t47 -312t127.5 -176t182.5 -56z" />
    <glyph glyph-name="P" unicode="P" horiz-adv-x="1208" 
d="M393 0h-264v1475h474q169 0 287 -64.5t179.5 -175t61.5 -246.5q0 -137 -62.5 -251t-180.5 -182.5t-285 -68.5h-210v-487zM574 1265h-181v-569h181q138 0 214.5 78.5t76.5 214.5t-75 206t-216 70z" />
    <glyph glyph-name="Thorn" unicode="&#xde;" horiz-adv-x="1164" 
d="M129 0v1473h263v-324h206q212 0 344.5 -106.5t132.5 -313.5q0 -139 -61 -232.5t-169 -140.5t-247 -47h-206v-309h-263zM571 938h-179v-419h179q106 0 174 52.5t68 157.5q0 107 -68.5 158t-173.5 51z" />
    <glyph glyph-name="Q" unicode="Q" horiz-adv-x="1455" 
d="M1105 -181l-76 -177q-16 2 -61.5 11t-103.5 30t-114 59t-95 98t-44 148q-151 27 -269 122t-185.5 253.5t-67.5 375.5q0 244 84.5 413t229.5 256.5t324 87.5q181 0 326 -87.5t229.5 -256.5t84.5 -413q0 -218 -69 -377.5t-189 -254.5t-271 -120q8 -46 44 -77t81.5 -50
t85 -28.5t56.5 -12.5zM727 195q104 0 188 56t133.5 176.5t49.5 311.5q0 192 -50 310.5t-134 173.5t-187 55q-102 0 -186 -55t-134.5 -173.5t-50.5 -310.5t50.5 -312t134.5 -176t186 -56z" />
    <glyph glyph-name="R" unicode="R" horiz-adv-x="1246" 
d="M129 0v1475h568q447 0 447 -402q0 -116 -44 -197t-107 -125t-120 -50q57 -4 111.5 -30t89 -81.5t34.5 -149.5v-299q0 -48 8 -87t20 -54h-265q-25 41 -25 141v268q0 185 -205 185h-255v-594h-257zM635 1265h-249v-461h257q97 0 163.5 67t66.5 178q0 108 -62 162t-176 54z
" />
    <glyph glyph-name="R.ss01" horiz-adv-x="1247" 
d="M702 1475q222 0 333 -110t111 -308q0 -176 -73.5 -276t-189.5 -141l249 -640h-270l-217 606h-259v-606h-257v1475h573zM667 810q86 0 146.5 59t60.5 178q0 110 -62.5 167t-176.5 57h-249v-461h281z" />
    <glyph glyph-name="Racute" unicode="&#x154;" horiz-adv-x="1246" 
d="M129 0v1475h568q447 0 447 -402q0 -116 -44 -197t-107 -125t-120 -50q57 -4 111.5 -30t89 -81.5t34.5 -149.5v-299q0 -48 8 -87t20 -54h-265q-25 41 -25 141v268q0 185 -205 185h-255v-594h-257zM635 1265h-249v-461h257q97 0 163.5 67t66.5 178q0 108 -62 162t-176 54z
M430 1556l276 198h220l-300 -198h-196z" />
    <glyph glyph-name="Racute.ss01" horiz-adv-x="1247" 
d="M702 1475q222 0 333 -110t111 -308q0 -176 -73.5 -276t-189.5 -141l249 -640h-270l-217 606h-259v-606h-257v1475h573zM667 810q86 0 146.5 59t60.5 178q0 110 -62.5 167t-176.5 57h-249v-461h281zM450 1556l276 198h220l-300 -198h-196z" />
    <glyph glyph-name="Rcaron" unicode="&#x158;" horiz-adv-x="1246" 
d="M129 0v1475h568q447 0 447 -402q0 -116 -44 -197t-107 -125t-120 -50q57 -4 111.5 -30t89 -81.5t34.5 -149.5v-299q0 -48 8 -87t20 -54h-265q-25 41 -25 141v268q0 185 -205 185h-255v-594h-257zM635 1265h-249v-461h257q97 0 163.5 67t66.5 178q0 108 -62 162t-176 54z
M262 1752h174l146 -128l146 128h176l-232 -198h-179z" />
    <glyph glyph-name="Rcaron.ss01" horiz-adv-x="1247" 
d="M702 1475q222 0 333 -110t111 -308q0 -176 -73.5 -276t-189.5 -141l249 -640h-270l-217 606h-259v-606h-257v1475h573zM667 810q86 0 146.5 59t60.5 178q0 110 -62.5 167t-176.5 57h-249v-461h281zM282 1752h174l146 -128l146 128h176l-232 -198h-179z" />
    <glyph glyph-name="uni0156" unicode="&#x156;" horiz-adv-x="1246" 
d="M129 0v1475h568q447 0 447 -402q0 -116 -44 -197t-107 -125t-120 -50q57 -4 111.5 -30t89 -81.5t34.5 -149.5v-299q0 -48 8 -87t20 -54h-265q-25 41 -25 141v268q0 185 -205 185h-255v-594h-257zM635 1265h-249v-461h257q97 0 163.5 67t66.5 178q0 108 -62 162t-176 54z
M616 -259q-43 0 -68.5 23t-25.5 62q0 48 35.5 70t77.5 22q40 0 78.5 -25.5t38.5 -88.5q0 -73 -30 -123.5t-72.5 -82t-80.5 -48.5l-18 45q44 17 89.5 60.5t45.5 112.5q-7 -12 -27.5 -19.5t-42.5 -7.5z" />
    <glyph glyph-name="uni0156.ss01" horiz-adv-x="1247" 
d="M702 1475q222 0 333 -110t111 -308q0 -176 -73.5 -276t-189.5 -141l249 -640h-270l-217 606h-259v-606h-257v1475h573zM667 810q86 0 146.5 59t60.5 178q0 110 -62.5 167t-176.5 57h-249v-461h281zM581 -259q-43 0 -68.5 23t-25.5 62q0 48 35.5 70t77.5 22
q40 0 78.5 -25.5t38.5 -88.5q0 -73 -30 -123.5t-72.5 -82t-80.5 -48.5l-18 45q44 17 89.5 60.5t45.5 112.5q-7 -12 -27.5 -19.5t-42.5 -7.5z" />
    <glyph glyph-name="uni0210" unicode="&#x210;" horiz-adv-x="1246" 
d="M129 0v1475h568q447 0 447 -402q0 -116 -44 -197t-107 -125t-120 -50q57 -4 111.5 -30t89 -81.5t34.5 -149.5v-299q0 -48 8 -87t20 -54h-265q-25 41 -25 141v268q0 185 -205 185h-255v-594h-257zM635 1265h-249v-461h257q97 0 163.5 67t66.5 178q0 108 -62 162t-176 54z
M824 1555h-148l-205 200h171zM501 1555h-149l-224 200h172z" />
    <glyph glyph-name="uni0210.ss01" horiz-adv-x="1247" 
d="M702 1475q222 0 333 -110t111 -308q0 -176 -73.5 -276t-189.5 -141l249 -640h-270l-217 606h-259v-606h-257v1475h573zM667 810q86 0 146.5 59t60.5 178q0 110 -62.5 167t-176.5 57h-249v-461h281zM844 1555h-148l-205 200h171zM521 1555h-149l-224 200h172z" />
    <glyph glyph-name="uni1E5A" unicode="&#x1e5a;" horiz-adv-x="1246" 
d="M129 0v1475h568q447 0 447 -402q0 -116 -44 -197t-107 -125t-120 -50q57 -4 111.5 -30t89 -81.5t34.5 -149.5v-299q0 -48 8 -87t20 -54h-265q-25 41 -25 141v268q0 185 -205 185h-255v-594h-257zM635 1265h-249v-461h257q97 0 163.5 67t66.5 178q0 108 -62 162t-176 54z
M638 -389q-64 0 -111 34.5t-47 95.5q0 62 47 95.5t111 33.5q62 0 109.5 -33.5t47.5 -95.5t-47.5 -96t-109.5 -34z" />
    <glyph glyph-name="uni1E5A.ss01" horiz-adv-x="1247" 
d="M702 1475q222 0 333 -110t111 -308q0 -176 -73.5 -276t-189.5 -141l249 -640h-270l-217 606h-259v-606h-257v1475h573zM667 810q86 0 146.5 59t60.5 178q0 110 -62.5 167t-176.5 57h-249v-461h281zM603 -389q-64 0 -111 34.5t-47 95.5q0 62 47 95.5t111 33.5
q62 0 109.5 -33.5t47.5 -95.5t-47.5 -96t-109.5 -34z" />
    <glyph glyph-name="uni0212" unicode="&#x212;" horiz-adv-x="1246" 
d="M129 0v1475h568q447 0 447 -402q0 -116 -44 -197t-107 -125t-120 -50q57 -4 111.5 -30t89 -81.5t34.5 -149.5v-299q0 -48 8 -87t20 -54h-265q-25 41 -25 141v268q0 185 -205 185h-255v-594h-257zM635 1265h-249v-461h257q97 0 163.5 67t66.5 178q0 108 -62 162t-176 54z
M309 1548q0 88 78 141.5t195 53.5t195.5 -53.5t78.5 -141.5h-157q0 38 -31 64.5t-86 26.5q-54 0 -85.5 -26.5t-31.5 -64.5h-156z" />
    <glyph glyph-name="uni0212.ss01" horiz-adv-x="1247" 
d="M702 1475q222 0 333 -110t111 -308q0 -176 -73.5 -276t-189.5 -141l249 -640h-270l-217 606h-259v-606h-257v1475h573zM667 810q86 0 146.5 59t60.5 178q0 110 -62.5 167t-176.5 57h-249v-461h281zM330 1548q0 88 78 141.5t195 53.5t195.5 -53.5t78.5 -141.5h-157
q0 38 -31 64.5t-86 26.5q-54 0 -85.5 -26.5t-31.5 -64.5h-156z" />
    <glyph glyph-name="uni1E5E" unicode="&#x1e5e;" horiz-adv-x="1246" 
d="M129 0v1475h568q447 0 447 -402q0 -116 -44 -197t-107 -125t-120 -50q57 -4 111.5 -30t89 -81.5t34.5 -149.5v-299q0 -48 8 -87t20 -54h-265q-25 41 -25 141v268q0 185 -205 185h-255v-594h-257zM635 1265h-249v-461h257q97 0 163.5 67t66.5 178q0 108 -62 162t-176 54z
M325 -288v111h625v-111h-625z" />
    <glyph glyph-name="uni1E5E.ss01" horiz-adv-x="1247" 
d="M702 1475q222 0 333 -110t111 -308q0 -176 -73.5 -276t-189.5 -141l249 -640h-270l-217 606h-259v-606h-257v1475h573zM667 810q86 0 146.5 59t60.5 178q0 110 -62.5 167t-176.5 57h-249v-461h281zM290 -288v111h625v-111h-625z" />
    <glyph glyph-name="S" unicode="S" horiz-adv-x="1222" 
d="M610 -22q-236 0 -378.5 112.5t-142.5 337.5v61h263v-56q0 -239 259 -239q129 0 197.5 43t68.5 138q0 69 -46.5 117.5t-127.5 85t-184 69.5q-116 35 -211.5 92.5t-152 144.5t-56.5 214t65.5 216t179.5 135.5t261 46.5q153 0 269.5 -48t182.5 -143t66 -237v-65h-264v53
q0 223 -250 223q-122 0 -188.5 -43.5t-66.5 -136.5q0 -70 45 -117t123.5 -82t178.5 -69q132 -44 229.5 -99.5t150.5 -138t53 -209.5q0 -195 -143.5 -300.5t-380.5 -105.5z" />
    <glyph glyph-name="Sacute" unicode="&#x15a;" horiz-adv-x="1222" 
d="M610 -22q-236 0 -378.5 112.5t-142.5 337.5v61h263v-56q0 -239 259 -239q129 0 197.5 43t68.5 138q0 69 -46.5 117.5t-127.5 85t-184 69.5q-116 35 -211.5 92.5t-152 144.5t-56.5 214t65.5 216t179.5 135.5t261 46.5q153 0 269.5 -48t182.5 -143t66 -237v-65h-264v53
q0 223 -250 223q-122 0 -188.5 -43.5t-66.5 -136.5q0 -70 45 -117t123.5 -82t178.5 -69q132 -44 229.5 -99.5t150.5 -138t53 -209.5q0 -195 -143.5 -300.5t-380.5 -105.5zM458 1556l276 198h220l-300 -198h-196z" />
    <glyph glyph-name="uni1E64" unicode="&#x1e64;" horiz-adv-x="1222" 
d="M610 -22q-236 0 -378.5 112.5t-142.5 337.5v61h263v-56q0 -239 259 -239q129 0 197.5 43t68.5 138q0 69 -46.5 117.5t-127.5 85t-184 69.5q-116 35 -211.5 92.5t-152 144.5t-56.5 214t65.5 216t179.5 135.5t261 46.5q153 0 269.5 -48t182.5 -143t66 -237v-65h-264v53
q0 223 -250 223q-122 0 -188.5 -43.5t-66.5 -136.5q0 -70 45 -117t123.5 -82t178.5 -69q132 -44 229.5 -99.5t150.5 -138t53 -209.5q0 -195 -143.5 -300.5t-380.5 -105.5zM479.182 1545.56l240.624 172.622h191.802l-261.548 -172.622h-170.878zM612.529 1801.24
q-59.1855 0 -103.81 32.4111t-44.624 89.7178q0 58.2461 44.624 90.1875t103.81 31.9414q60.125 0 104.279 -31.9414t44.1543 -90.1875t-44.1543 -90.1875t-104.279 -31.9414z" />
    <glyph glyph-name="Scaron" unicode="&#x160;" horiz-adv-x="1222" 
d="M610 -22q-236 0 -378.5 112.5t-142.5 337.5v61h263v-56q0 -239 259 -239q129 0 197.5 43t68.5 138q0 69 -46.5 117.5t-127.5 85t-184 69.5q-116 35 -211.5 92.5t-152 144.5t-56.5 214t65.5 216t179.5 135.5t261 46.5q153 0 269.5 -48t182.5 -143t66 -237v-65h-264v53
q0 223 -250 223q-122 0 -188.5 -43.5t-66.5 -136.5q0 -70 45 -117t123.5 -82t178.5 -69q132 -44 229.5 -99.5t150.5 -138t53 -209.5q0 -195 -143.5 -300.5t-380.5 -105.5zM290 1752h174l146 -128l146 128h176l-232 -198h-179z" />
    <glyph glyph-name="uni1E66" unicode="&#x1e66;" horiz-adv-x="1222" 
d="M610 -22q-236 0 -378.5 112.5t-142.5 337.5v61h263v-56q0 -239 259 -239q129 0 197.5 43t68.5 138q0 69 -46.5 117.5t-127.5 85t-184 69.5q-116 35 -211.5 92.5t-152 144.5t-56.5 214t65.5 216t179.5 135.5t261 46.5q153 0 269.5 -48t182.5 -143t66 -237v-65h-264v53
q0 223 -250 223q-122 0 -188.5 -43.5t-66.5 -136.5q0 -70 45 -117t123.5 -82t178.5 -69q132 -44 229.5 -99.5t150.5 -138t53 -209.5q0 -195 -143.5 -300.5t-380.5 -105.5zM290 1752h174l146 -128l146 128h176l-232 -198h-179zM613 1842q-63 0 -110.5 34.5t-47.5 95.5
q0 62 47.5 96t110.5 34q64 0 111 -34t47 -96t-47 -96t-111 -34z" />
    <glyph glyph-name="Scedilla" unicode="&#x15e;" horiz-adv-x="1222" 
d="M710 -82q52 0 100 -35.5t48 -114.5q0 -64 -38 -105.5t-98 -61.5t-127 -20q-60 0 -118.5 15t-81.5 31l53 99q17 -11 61 -27.5t96 -16.5q57 0 96 23.5t39 67.5q0 36 -20.5 52.5t-50.5 16.5q-25 0 -50 -9t-38 -26l-102 29l63 144q-207 16 -330 128t-123 320v61h263v-56
q0 -239 259 -239q129 0 197.5 43t68.5 138q0 69 -46.5 117.5t-127.5 85t-184 69.5q-116 35 -211.5 92.5t-152 144.5t-56.5 214t65.5 216t179.5 135.5t261 46.5q153 0 269.5 -48t182.5 -143t66 -237v-65h-264v53q0 223 -250 223q-122 0 -188.5 -43.5t-66.5 -136.5
q0 -70 45 -117t123.5 -82t178.5 -69q132 -44 229.5 -99.5t150.5 -138t53 -209.5q0 -185 -130.5 -290t-347.5 -115l-37 -86q37 25 91 25z" />
    <glyph glyph-name="Scircumflex" unicode="&#x15c;" horiz-adv-x="1222" 
d="M610 -22q-236 0 -378.5 112.5t-142.5 337.5v61h263v-56q0 -239 259 -239q129 0 197.5 43t68.5 138q0 69 -46.5 117.5t-127.5 85t-184 69.5q-116 35 -211.5 92.5t-152 144.5t-56.5 214t65.5 216t179.5 135.5t261 46.5q153 0 269.5 -48t182.5 -143t66 -237v-65h-264v53
q0 223 -250 223q-122 0 -188.5 -43.5t-66.5 -136.5q0 -70 45 -117t123.5 -82t178.5 -69q132 -44 229.5 -99.5t150.5 -138t53 -209.5q0 -195 -143.5 -300.5t-380.5 -105.5zM290 1554l231 198h179l232 -198h-176l-146 127l-146 -127h-174z" />
    <glyph glyph-name="uni0218" unicode="&#x218;" horiz-adv-x="1222" 
d="M610 -22q-236 0 -378.5 112.5t-142.5 337.5v61h263v-56q0 -239 259 -239q129 0 197.5 43t68.5 138q0 69 -46.5 117.5t-127.5 85t-184 69.5q-116 35 -211.5 92.5t-152 144.5t-56.5 214t65.5 216t179.5 135.5t261 46.5q153 0 269.5 -48t182.5 -143t66 -237v-65h-264v53
q0 223 -250 223q-122 0 -188.5 -43.5t-66.5 -136.5q0 -70 45 -117t123.5 -82t178.5 -69q132 -44 229.5 -99.5t150.5 -138t53 -209.5q0 -195 -143.5 -300.5t-380.5 -105.5zM590 -259q-43 0 -68.5 23t-25.5 62q0 48 35.5 70t77.5 22q40 0 78.5 -25.5t38.5 -88.5
q0 -73 -30 -123.5t-72.5 -82t-80.5 -48.5l-18 45q44 17 89.5 60.5t45.5 112.5q-7 -12 -27.5 -19.5t-42.5 -7.5z" />
    <glyph glyph-name="uni1E60" unicode="&#x1e60;" horiz-adv-x="1222" 
d="M610 -22q-236 0 -378.5 112.5t-142.5 337.5v61h263v-56q0 -239 259 -239q129 0 197.5 43t68.5 138q0 69 -46.5 117.5t-127.5 85t-184 69.5q-116 35 -211.5 92.5t-152 144.5t-56.5 214t65.5 216t179.5 135.5t261 46.5q153 0 269.5 -48t182.5 -143t66 -237v-65h-264v53
q0 223 -250 223q-122 0 -188.5 -43.5t-66.5 -136.5q0 -70 45 -117t123.5 -82t178.5 -69q132 -44 229.5 -99.5t150.5 -138t53 -209.5q0 -195 -143.5 -300.5t-380.5 -105.5zM613 1565q-63 0 -110.5 34.5t-47.5 95.5q0 62 47.5 96t110.5 34q64 0 111 -34t47 -96t-47 -96
t-111 -34z" />
    <glyph glyph-name="uni1E62" unicode="&#x1e62;" horiz-adv-x="1222" 
d="M610 -22q-236 0 -378.5 112.5t-142.5 337.5v61h263v-56q0 -239 259 -239q129 0 197.5 43t68.5 138q0 69 -46.5 117.5t-127.5 85t-184 69.5q-116 35 -211.5 92.5t-152 144.5t-56.5 214t65.5 216t179.5 135.5t261 46.5q153 0 269.5 -48t182.5 -143t66 -237v-65h-264v53
q0 223 -250 223q-122 0 -188.5 -43.5t-66.5 -136.5q0 -70 45 -117t123.5 -82t178.5 -69q132 -44 229.5 -99.5t150.5 -138t53 -209.5q0 -195 -143.5 -300.5t-380.5 -105.5zM612 -389q-64 0 -111 34.5t-47 95.5q0 62 47 95.5t111 33.5q62 0 109.5 -33.5t47.5 -95.5t-47.5 -96
t-109.5 -34z" />
    <glyph glyph-name="uni1E68" unicode="&#x1e68;" horiz-adv-x="1222" 
d="M610 -22q-236 0 -378.5 112.5t-142.5 337.5v61h263v-56q0 -239 259 -239q129 0 197.5 43t68.5 138q0 69 -46.5 117.5t-127.5 85t-184 69.5q-116 35 -211.5 92.5t-152 144.5t-56.5 214t65.5 216t179.5 135.5t261 46.5q153 0 269.5 -48t182.5 -143t66 -237v-65h-264v53
q0 223 -250 223q-122 0 -188.5 -43.5t-66.5 -136.5q0 -70 45 -117t123.5 -82t178.5 -69q132 -44 229.5 -99.5t150.5 -138t53 -209.5q0 -195 -143.5 -300.5t-380.5 -105.5zM612 -389q-64 0 -111 34.5t-47 95.5q0 62 47 95.5t111 33.5q62 0 109.5 -33.5t47.5 -95.5t-47.5 -96
t-109.5 -34zM613 1565q-63 0 -110.5 34.5t-47.5 95.5q0 62 47.5 96t110.5 34q64 0 111 -34t47 -96t-47 -96t-111 -34z" />
    <glyph glyph-name="uni1E9E" unicode="&#x1e9e;" horiz-adv-x="1315" 
d="M129 0v1108q0 190 113 278.5t287 88.5h597v-222l-343 -360q31 11 77 11q95 0 179 -46.5t135.5 -145.5t51.5 -257q0 -166 -68.5 -269t-186 -151t-264.5 -48q-74 0 -126 11t-74 20l5 214q18 -9 76.5 -22t122.5 -13q104 0 177 64t73 205q0 143 -68.5 203t-163.5 60
q-32 0 -55 -8t-36 -14l-149 172l353 386h-280q-87 0 -128 -49.5t-41 -139.5v-1076h-264z" />
    <glyph glyph-name="uni018F" unicode="&#x18f;" horiz-adv-x="1300" 
d="M638 -11q-252 0 -400.5 186.5t-148.5 537.5v67.5t1 37.5h854q-11 247 -89.5 351.5t-208.5 104.5q-96 0 -160 -41.5t-97 -103t-35 -120.5h-254q3 121 71.5 229.5t190 177t284.5 68.5q162 0 290 -79t202 -243.5t74 -422.5q0 -235 -72 -403t-201.5 -257.5t-300.5 -89.5z
M638 198q134 0 210 106t93 311h-591q6 -199 79 -308t209 -109z" />
    <glyph glyph-name="T" unicode="T" horiz-adv-x="1145" 
d="M1074 1265h-370v-1265h-264v1265h-369v210h1003v-210z" />
    <glyph glyph-name="Tbar" unicode="&#x166;" horiz-adv-x="1145" 
d="M214 677v122h226v466h-369v210h1003v-210h-370v-466h227v-122h-227v-677h-264v677h-226z" />
    <glyph glyph-name="Tcaron" unicode="&#x164;" horiz-adv-x="1145" 
d="M1074 1265h-370v-1265h-264v1265h-369v210h1003v-210zM252 1752h174l146 -128l146 128h176l-232 -198h-179z" />
    <glyph glyph-name="uni0162" unicode="&#x162;" horiz-adv-x="1145" 
d="M1074 1265h-370v-1265h-264v1265h-369v210h1003v-210zM672 -82q52 0 100 -35.5t48 -114.5q0 -64 -38 -105.5t-98 -61.5t-127 -20q-60 0 -118.5 15t-81.5 31l53 99q17 -11 61 -27.5t96 -16.5q57 0 96 23.5t39 67.5q0 36 -20.5 52.5t-50.5 16.5q-25 0 -50 -9t-38 -26
l-102 29l71 164h115l-46 -107q37 25 91 25z" />
    <glyph glyph-name="uni021A" unicode="&#x21a;" horiz-adv-x="1145" 
d="M1074 1265h-370v-1265h-264v1265h-369v210h1003v-210zM552 -259q-43 0 -68.5 23t-25.5 62q0 48 35.5 70t77.5 22q40 0 78.5 -25.5t38.5 -88.5q0 -73 -30 -123.5t-72.5 -82t-80.5 -48.5l-18 45q44 17 89.5 60.5t45.5 112.5q-7 -12 -27.5 -19.5t-42.5 -7.5z" />
    <glyph glyph-name="uni1E6C" unicode="&#x1e6c;" horiz-adv-x="1145" 
d="M1074 1265h-370v-1265h-264v1265h-369v210h1003v-210zM574 -389q-64 0 -111 34.5t-47 95.5q0 62 47 95.5t111 33.5q62 0 109.5 -33.5t47.5 -95.5t-47.5 -96t-109.5 -34z" />
    <glyph glyph-name="uni1E6E" unicode="&#x1e6e;" horiz-adv-x="1145" 
d="M1074 1265h-370v-1265h-264v1265h-369v210h1003v-210zM262 -288v111h625v-111h-625z" />
    <glyph glyph-name="U" unicode="U" horiz-adv-x="1332" 
d="M1204 536q0 -282 -143.5 -420t-395.5 -138q-250 0 -393 138t-143 420v939h264v-941q0 -178 66.5 -259t205.5 -81q141 0 208 81t67 259v941h264v-939z" />
    <glyph glyph-name="Uacute" unicode="&#xda;" horiz-adv-x="1332" 
d="M1204 536q0 -282 -143.5 -420t-395.5 -138q-250 0 -393 138t-143 420v939h264v-941q0 -178 66.5 -259t205.5 -81q141 0 208 81t67 259v941h264v-939zM513 1556l276 198h220l-300 -198h-196z" />
    <glyph glyph-name="Ubreve" unicode="&#x16c;" horiz-adv-x="1332" 
d="M1204 536q0 -282 -143.5 -420t-395.5 -138q-250 0 -393 138t-143 420v939h264v-941q0 -178 66.5 -259t205.5 -81q141 0 208 81t67 259v941h264v-939zM393 1734h156q0 -38 31.5 -66.5t85.5 -28.5q55 0 86 28.5t31 66.5h157q0 -88 -78.5 -143.5t-195.5 -55.5t-195 55.5
t-78 143.5z" />
    <glyph glyph-name="uni01D3" unicode="&#x1d3;" horiz-adv-x="1332" 
d="M1204 536q0 -282 -143.5 -420t-395.5 -138q-250 0 -393 138t-143 420v939h264v-941q0 -178 66.5 -259t205.5 -81q141 0 208 81t67 259v941h264v-939zM349 1888h171l145 -171l146 171h173l-231 -262h-174z" />
    <glyph glyph-name="Ucircumflex" unicode="&#xdb;" horiz-adv-x="1332" 
d="M1204 536q0 -282 -143.5 -420t-395.5 -138q-250 0 -393 138t-143 420v939h264v-941q0 -178 66.5 -259t205.5 -81q141 0 208 81t67 259v941h264v-939zM345 1554l231 198h179l232 -198h-176l-146 127l-146 -127h-174z" />
    <glyph glyph-name="uni0214" unicode="&#x214;" horiz-adv-x="1332" 
d="M1204 536q0 -282 -143.5 -420t-395.5 -138q-250 0 -393 138t-143 420v939h264v-941q0 -178 66.5 -259t205.5 -81q141 0 208 81t67 259v941h264v-939zM907 1555h-148l-205 200h171zM584 1555h-149l-224 200h172z" />
    <glyph glyph-name="Udieresis" unicode="&#xdc;" horiz-adv-x="1332" 
d="M1204 536q0 -282 -143.5 -420t-395.5 -138q-250 0 -393 138t-143 420v939h264v-941q0 -178 66.5 -259t205.5 -81q141 0 208 81t67 259v941h264v-939zM440 1549q-58 0 -101.5 31.5t-43.5 88.5t43.5 88t101.5 31t102 -31t44 -88t-44 -88.5t-102 -31.5zM892 1549
q-59 0 -102 31.5t-43 88.5t43 88t102 31q58 0 101.5 -31t43.5 -88t-43.5 -88.5t-101.5 -31.5z" />
    <glyph glyph-name="uni01D7" unicode="&#x1d7;" horiz-adv-x="1332" 
d="M1204 536q0 -282 -143.5 -420t-395.5 -138q-250 0 -393 138t-143 420v939h264v-941q0 -178 66.5 -259t205.5 -81q141 0 208 81t67 259v941h264v-939zM440 1549q-58 0 -101.5 31.5t-43.5 88.5t43.5 88t101.5 31t102 -31t44 -88t-44 -88.5t-102 -31.5zM892 1549
q-59 0 -102 31.5t-43 88.5t43 88t102 31q58 0 101.5 -31t43.5 -88t-43.5 -88.5t-101.5 -31.5zM513 1837l276 198h220l-300 -198h-196z" />
    <glyph glyph-name="uni01D9" unicode="&#x1d9;" horiz-adv-x="1332" 
d="M1204 536q0 -282 -143.5 -420t-395.5 -138q-250 0 -393 138t-143 420v939h264v-941q0 -178 66.5 -259t205.5 -81q141 0 208 81t67 259v941h264v-939zM440 1549q-58 0 -101.5 31.5t-43.5 88.5t43.5 88t101.5 31t102 -31t44 -88t-44 -88.5t-102 -31.5zM892 1549
q-59 0 -102 31.5t-43 88.5t43 88t102 31q58 0 101.5 -31t43.5 -88t-43.5 -88.5t-101.5 -31.5zM345 2033h174l146 -128l146 128h176l-232 -198h-179z" />
    <glyph glyph-name="uni01DB" unicode="&#x1db;" horiz-adv-x="1332" 
d="M1204 536q0 -282 -143.5 -420t-395.5 -138q-250 0 -393 138t-143 420v939h264v-941q0 -178 66.5 -259t205.5 -81q141 0 208 81t67 259v941h264v-939zM440 1549q-58 0 -101.5 31.5t-43.5 88.5t43.5 88t101.5 31t102 -31t44 -88t-44 -88.5t-102 -31.5zM892 1549
q-59 0 -102 31.5t-43 88.5t43 88t102 31q58 0 101.5 -31t43.5 -88t-43.5 -88.5t-101.5 -31.5zM821 1837h-195l-301 198h220z" />
    <glyph glyph-name="uni01D5" unicode="&#x1d5;" horiz-adv-x="1332" 
d="M1204 536q0 -282 -143.5 -420t-395.5 -138q-250 0 -393 138t-143 420v939h264v-941q0 -178 66.5 -259t205.5 -81q141 0 208 81t67 259v941h264v-939zM440 1549q-58 0 -101.5 31.5t-43.5 88.5t43.5 88t101.5 31t102 -31t44 -88t-44 -88.5t-102 -31.5zM892 1549
q-59 0 -102 31.5t-43 88.5t43 88t102 31q58 0 101.5 -31t43.5 -88t-43.5 -88.5t-101.5 -31.5zM371 1891v111h588v-111h-588z" />
    <glyph glyph-name="uni1EE4" unicode="&#x1ee4;" horiz-adv-x="1332" 
d="M1204 536q0 -282 -143.5 -420t-395.5 -138q-250 0 -393 138t-143 420v939h264v-941q0 -178 66.5 -259t205.5 -81q141 0 208 81t67 259v941h264v-939zM666 -389q-64 0 -111 34.5t-47 95.5q0 62 47 95.5t111 33.5q62 0 109.5 -33.5t47.5 -95.5t-47.5 -96t-109.5 -34z" />
    <glyph glyph-name="Ugrave" unicode="&#xd9;" horiz-adv-x="1332" 
d="M1204 536q0 -282 -143.5 -420t-395.5 -138q-250 0 -393 138t-143 420v939h264v-941q0 -178 66.5 -259t205.5 -81q141 0 208 81t67 259v941h264v-939zM821 1556h-195l-301 198h220z" />
    <glyph glyph-name="uni1EE6" unicode="&#x1ee6;" horiz-adv-x="1332" 
d="M1204 536q0 -282 -143.5 -420t-395.5 -138q-250 0 -393 138t-143 420v939h264v-941q0 -178 66.5 -259t205.5 -81q141 0 208 81t67 259v941h264v-939zM453 1791q110 0 200.5 -8.5t144 -36t53.5 -85.5q0 -75 -79 -108.5t-190 -33.5l-28 72q33 2 72 7.5t67 18t28 34.5
q0 35 -71.5 44.5t-196.5 9.5v86z" />
    <glyph glyph-name="Uhorn" unicode="&#x1af;" horiz-adv-x="1415" 
d="M1204 536q0 -282 -143.5 -420t-395.5 -138q-250 0 -393 138t-143 420v939h264v-941q0 -178 66.5 -259t205.5 -81q141 0 208 81t67 259v941h155q163 0 163 258h165q0 -161 -58 -253t-161 -121v-823z" />
    <glyph glyph-name="uni1EE8" unicode="&#x1ee8;" horiz-adv-x="1423" 
d="M1204 536q0 -282 -143.5 -420t-395.5 -138q-250 0 -393 138t-143 420v939h264v-941q0 -178 66.5 -259t205.5 -81q141 0 208 81t67 259v941h155q163 0 163 258h165q0 -161 -58 -253t-161 -121v-823zM513 1556l276 198h220l-300 -198h-196z" />
    <glyph glyph-name="uni1EF0" unicode="&#x1ef0;" horiz-adv-x="1423" 
d="M640 -406q-64 0 -111 34.5t-47 95.5q0 62 47 95.5t111 33.5q62 0 109.5 -33.5t47.5 -95.5t-47.5 -96t-109.5 -34zM1204 536q0 -282 -143.5 -420t-395.5 -138q-250 0 -393 138t-143 420v939h264v-941q0 -178 66.5 -259t205.5 -81q141 0 208 81t67 259v941h155
q163 0 163 258h165q0 -161 -58 -253t-161 -121v-823z" />
    <glyph glyph-name="uni1EEA" unicode="&#x1eea;" horiz-adv-x="1423" 
d="M829 1556h-195l-301 198h220zM1204 536q0 -282 -143.5 -420t-395.5 -138q-250 0 -393 138t-143 420v939h264v-941q0 -178 66.5 -259t205.5 -81q141 0 208 81t67 259v941h155q163 0 163 258h165q0 -161 -58 -253t-161 -121v-823z" />
    <glyph glyph-name="uni1EEC" unicode="&#x1eec;" horiz-adv-x="1423" 
d="M1204 536q0 -282 -143.5 -420t-395.5 -138q-250 0 -393 138t-143 420v939h264v-941q0 -178 66.5 -259t205.5 -81q141 0 208 81t67 259v941h155q163 0 163 258h165q0 -161 -58 -253t-161 -121v-823zM453 1791q110 0 200.5 -8.5t144 -36t53.5 -85.5q0 -75 -79 -108.5
t-190 -33.5l-28 72q33 2 72 7.5t67 18t28 34.5q0 35 -71.5 44.5t-196.5 9.5v86z" />
    <glyph glyph-name="uni1EEE" unicode="&#x1eee;" horiz-adv-x="1423" 
d="M998 1749q-1 -44 -20.5 -91.5t-60.5 -80.5t-106 -33q-51 0 -86 20t-58 40q-22 18 -44.5 32.5t-51.5 14.5q-37 0 -52.5 -24.5t-16.5 -59.5h-139q2 46 23.5 94t64.5 80.5t109 32.5q48 0 82.5 -19.5t56.5 -38.5q23 -19 47 -34t50 -15q35 0 48.5 23.5t15.5 58.5h138z
M1204 536q0 -282 -143.5 -420t-395.5 -138q-250 0 -393 138t-143 420v939h264v-941q0 -178 66.5 -259t205.5 -81q141 0 208 81t67 259v941h155q163 0 163 258h165q0 -161 -58 -253t-161 -121v-823z" />
    <glyph glyph-name="Uhungarumlaut" unicode="&#x170;" horiz-adv-x="1332" 
d="M1204 536q0 -282 -143.5 -420t-395.5 -138q-250 0 -393 138t-143 420v939h264v-941q0 -178 66.5 -259t205.5 -81q141 0 208 81t67 259v941h264v-939zM421 1556l239 198h179l-261 -198h-157zM744 1556l239 198h178l-261 -198h-156z" />
    <glyph glyph-name="uni0216" unicode="&#x216;" horiz-adv-x="1332" 
d="M1204 536q0 -282 -143.5 -420t-395.5 -138q-250 0 -393 138t-143 420v939h264v-941q0 -178 66.5 -259t205.5 -81q141 0 208 81t67 259v941h264v-939zM393 1548q0 88 78 141.5t195 53.5t195.5 -53.5t78.5 -141.5h-157q0 38 -31 64.5t-86 26.5q-54 0 -85.5 -26.5
t-31.5 -64.5h-156z" />
    <glyph glyph-name="Umacron" unicode="&#x16a;" horiz-adv-x="1332" 
d="M1204 536q0 -282 -143.5 -420t-395.5 -138q-250 0 -393 138t-143 420v939h264v-941q0 -178 66.5 -259t205.5 -81q141 0 208 81t67 259v941h264v-939zM371 1610v111h588v-111h-588z" />
    <glyph glyph-name="uni1E7A" unicode="&#x1e7a;" horiz-adv-x="1332" 
d="M1204 536q0 -282 -143.5 -420t-395.5 -138q-250 0 -393 138t-143 420v939h264v-941q0 -178 66.5 -259t205.5 -81q141 0 208 81t67 259v941h264v-939zM371 1610v111h588v-111h-588zM440 1795q-58 0 -101.5 31.5t-43.5 88.5t43.5 88t101.5 31t102 -31t44 -88t-44 -88.5
t-102 -31.5zM892 1795q-59 0 -102 31.5t-43 88.5t43 88t102 31q58 0 101.5 -31t43.5 -88t-43.5 -88.5t-101.5 -31.5z" />
    <glyph glyph-name="Uogonek" unicode="&#x172;" horiz-adv-x="1332" 
d="M917 -285v-129q-20 -2 -44.5 -4t-48.5 -2q-94 0 -165.5 36.5t-71.5 123.5q0 67 45.5 130.5t96.5 109.5q-31 -2 -64 -2q-250 0 -393 138t-143 420v939h264v-941q0 -178 66.5 -259t205.5 -81q141 0 208 81t67 259v941h264v-939q0 -204 -76.5 -332.5t-215.5 -183.5
q-31 -28 -71.5 -71.5t-70 -89t-29.5 -79.5q0 -40 28 -56t70 -16q19 0 40 2t38 5z" />
    <glyph glyph-name="Uring" unicode="&#x16e;" horiz-adv-x="1332" 
d="M1204 536q0 -282 -143.5 -420t-395.5 -138q-250 0 -393 138t-143 420v939h264v-941q0 -178 66.5 -259t205.5 -81q141 0 208 81t67 259v941h264v-939zM666 1519q-90 0 -153.5 63.5t-63.5 153.5q0 59 29.5 108.5t78.5 79t109 29.5q90 0 153.5 -64t63.5 -153
q0 -90 -63.5 -153.5t-153.5 -63.5zM666 1635q42 0 71.5 29t29.5 72q0 42 -29.5 71t-71.5 29t-71.5 -29t-29.5 -71q0 -43 29.5 -72t71.5 -29z" />
    <glyph glyph-name="Utilde" unicode="&#x168;" horiz-adv-x="1332" 
d="M1204 536q0 -282 -143.5 -420t-395.5 -138q-250 0 -393 138t-143 420v939h264v-941q0 -178 66.5 -259t205.5 -81q141 0 208 81t67 259v941h264v-939zM990 1749q-1 -44 -20.5 -91.5t-60.5 -80.5t-106 -33q-51 0 -86 20t-58 40q-22 18 -44.5 32.5t-51.5 14.5
q-37 0 -52.5 -24.5t-16.5 -59.5h-139q2 46 23.5 94t64.5 80.5t109 32.5q48 0 82.5 -19.5t56.5 -38.5q23 -19 47 -34t50 -15q35 0 48.5 23.5t15.5 58.5h138z" />
    <glyph glyph-name="uni1E78" unicode="&#x1e78;" horiz-adv-x="1332" 
d="M1204 536q0 -282 -143.5 -420t-395.5 -138q-250 0 -393 138t-143 420v939h264v-941q0 -178 66.5 -259t205.5 -81q141 0 208 81t67 259v941h264v-939zM990 1749q-1 -44 -20.5 -91.5t-60.5 -80.5t-106 -33q-51 0 -86 20t-58 40q-22 18 -44.5 32.5t-51.5 14.5
q-37 0 -52.5 -24.5t-16.5 -59.5h-139q2 46 23.5 94t64.5 80.5t109 32.5q48 0 82.5 -19.5t56.5 -38.5q23 -19 47 -34t50 -15q35 0 48.5 23.5t15.5 58.5h138zM513 1856l276 198h220l-300 -198h-196z" />
    <glyph glyph-name="V" unicode="V" horiz-adv-x="1268" 
d="M439 -5l-376 1480h291l281 -1277l279 1277h291l-373 -1480h-393z" />
    <glyph glyph-name="W" unicode="W" horiz-adv-x="1834" 
d="M297 0l-222 1475h272l155 -1283l249 1283h332l248 -1283l155 1283h273l-224 -1475h-404l-214 1205l-214 -1205h-406z" />
    <glyph glyph-name="Wacute" unicode="&#x1e82;" horiz-adv-x="1834" 
d="M297 0l-222 1475h272l155 -1283l249 1283h332l248 -1283l155 1283h273l-224 -1475h-404l-214 1205l-214 -1205h-406zM768 1556l276 198h220l-300 -198h-196z" />
    <glyph glyph-name="Wcircumflex" unicode="&#x174;" horiz-adv-x="1834" 
d="M297 0l-222 1475h272l155 -1283l249 1283h332l248 -1283l155 1283h273l-224 -1475h-404l-214 1205l-214 -1205h-406zM600 1554l231 198h179l232 -198h-176l-146 127l-146 -127h-174z" />
    <glyph glyph-name="Wdieresis" unicode="&#x1e84;" horiz-adv-x="1834" 
d="M297 0l-222 1475h272l155 -1283l249 1283h332l248 -1283l155 1283h273l-224 -1475h-404l-214 1205l-214 -1205h-406zM695 1549q-58 0 -101.5 31.5t-43.5 88.5t43.5 88t101.5 31t102 -31t44 -88t-44 -88.5t-102 -31.5zM1147 1549q-59 0 -102 31.5t-43 88.5t43 88t102 31
q58 0 101.5 -31t43.5 -88t-43.5 -88.5t-101.5 -31.5z" />
    <glyph glyph-name="Wgrave" unicode="&#x1e80;" horiz-adv-x="1834" 
d="M297 0l-222 1475h272l155 -1283l249 1283h332l248 -1283l155 1283h273l-224 -1475h-404l-214 1205l-214 -1205h-406zM1076 1556h-195l-301 198h220z" />
    <glyph glyph-name="X" unicode="X" horiz-adv-x="1279" 
d="M934 0l-295 542l-295 -542h-295l426 730l-414 745h295l283 -557l281 557h296l-411 -744l425 -731h-296z" />
    <glyph glyph-name="Y" unicode="Y" horiz-adv-x="1233" 
d="M1170 1475l-423 -965v-510h-264v510l-420 965h279l274 -692l273 692h281z" />
    <glyph glyph-name="Yacute" unicode="&#xdd;" horiz-adv-x="1233" 
d="M1170 1475l-423 -965v-510h-264v510l-420 965h279l274 -692l273 692h281zM464 1556l276 198h220l-300 -198h-196z" />
    <glyph glyph-name="Ycircumflex" unicode="&#x176;" horiz-adv-x="1233" 
d="M1170 1475l-423 -965v-510h-264v510l-420 965h279l274 -692l273 692h281zM296 1554l231 198h179l232 -198h-176l-146 127l-146 -127h-174z" />
    <glyph glyph-name="Ydieresis" unicode="&#x178;" horiz-adv-x="1233" 
d="M1170 1475l-423 -965v-510h-264v510l-420 965h279l274 -692l273 692h281zM391 1549q-58 0 -101.5 31.5t-43.5 88.5t43.5 88t101.5 31t102 -31t44 -88t-44 -88.5t-102 -31.5zM843 1549q-59 0 -102 31.5t-43 88.5t43 88t102 31q58 0 101.5 -31t43.5 -88t-43.5 -88.5
t-101.5 -31.5z" />
    <glyph glyph-name="uni1EF4" unicode="&#x1ef4;" horiz-adv-x="1233" 
d="M1170 1475l-423 -965v-510h-264v510l-420 965h279l274 -692l273 692h281zM617 -389q-64 0 -111 34.5t-47 95.5q0 62 47 95.5t111 33.5q62 0 109.5 -33.5t47.5 -95.5t-47.5 -96t-109.5 -34z" />
    <glyph glyph-name="Ygrave" unicode="&#x1ef2;" horiz-adv-x="1233" 
d="M1170 1475l-423 -965v-510h-264v510l-420 965h279l274 -692l273 692h281zM772 1556h-195l-301 198h220z" />
    <glyph glyph-name="uni1EF6" unicode="&#x1ef6;" horiz-adv-x="1233" 
d="M1170 1475l-423 -965v-510h-264v510l-420 965h279l274 -692l273 692h281zM404 1791q110 0 200.5 -8.5t144 -36t53.5 -85.5q0 -75 -79 -108.5t-190 -33.5l-28 72q33 2 72 7.5t67 18t28 34.5q0 35 -71.5 44.5t-196.5 9.5v86z" />
    <glyph glyph-name="uni0232" unicode="&#x232;" horiz-adv-x="1233" 
d="M1170 1475l-423 -965v-510h-264v510l-420 965h279l274 -692l273 692h281zM322 1610v111h588v-111h-588z" />
    <glyph glyph-name="uni1EF8" unicode="&#x1ef8;" horiz-adv-x="1233" 
d="M1170 1475l-423 -965v-510h-264v510l-420 965h279l274 -692l273 692h281zM941 1749q-1 -44 -20.5 -91.5t-60.5 -80.5t-106 -33q-51 0 -86 20t-58 40q-22 18 -44.5 32.5t-51.5 14.5q-37 0 -52.5 -24.5t-16.5 -59.5h-139q2 46 23.5 94t64.5 80.5t109 32.5q48 0 82.5 -19.5
t56.5 -38.5q23 -19 47 -34t50 -15q35 0 48.5 23.5t15.5 58.5h138z" />
    <glyph glyph-name="Z" unicode="Z" horiz-adv-x="1147" 
d="M389 210h655v-210h-951v183l666 1082h-620v210h914v-180l-664 -1082v-3z" />
    <glyph glyph-name="Zacute" unicode="&#x179;" horiz-adv-x="1147" 
d="M389 210h655v-210h-951v183l666 1082h-620v210h914v-180l-664 -1082v-3zM424 1556l276 198h220l-300 -198h-196z" />
    <glyph glyph-name="Zcaron" unicode="&#x17d;" horiz-adv-x="1147" 
d="M389 210h655v-210h-951v183l666 1082h-620v210h914v-180l-664 -1082v-3zM256 1752h174l146 -128l146 128h176l-232 -198h-179z" />
    <glyph glyph-name="Zdotaccent" unicode="&#x17b;" horiz-adv-x="1147" 
d="M389 210h655v-210h-951v183l666 1082h-620v210h914v-180l-664 -1082v-3zM579 1565q-63 0 -110.5 34.5t-47.5 95.5q0 62 47.5 96t110.5 34q64 0 111 -34t47 -96t-47 -96t-111 -34z" />
    <glyph glyph-name="uni1E92" unicode="&#x1e92;" horiz-adv-x="1147" 
d="M389 210h655v-210h-951v183l666 1082h-620v210h914v-180l-664 -1082v-3zM577 -385q-64 0 -111 34.5t-47 95.5q0 62 47 95.5t111 33.5q62 0 109.5 -33.5t47.5 -95.5t-47.5 -96t-109.5 -34z" />
    <glyph glyph-name="a" unicode="a" horiz-adv-x="1243" 
d="M496 -22q-178 0 -289.5 83.5t-111.5 233.5q0 109 59.5 179.5t160.5 108.5t224 50q182 18 254.5 34.5t72.5 53.5v2q0 70 -63 108t-178 38q-121 0 -185.5 -43t-64.5 -134h-260q0 125 66.5 211.5t182.5 131.5t263 45q136 0 250.5 -41t183.5 -124t69 -207v-484
q0 -38 2.5 -74.5t10.5 -65.5q10 -33 24 -54.5t22 -29.5h-260q-7 7 -19.5 27.5t-22.5 47.5q-7 20 -11 42q-59 -65 -158.5 -102t-221.5 -37zM560 185q82 0 152.5 28t113 86.5t42.5 150.5v50q-59 -16 -130 -26.5t-142 -17.5q-118 -12 -177.5 -41.5t-59.5 -97.5q0 -132 201 -132
z" />
    <glyph glyph-name="a.ss01" horiz-adv-x="1321" 
d="M599 -22q-132 0 -249.5 61t-191 185t-73.5 313q0 181 74.5 302t192.5 181t247 60q98 0 185.5 -36.5t150.5 -106.5v125h264v-1062h-264v117q-63 -69 -150.5 -104t-185.5 -35zM662 204q71 0 133.5 31.5t101 93t38.5 151.5v104q0 90 -39 150.5t-101.5 90.5t-132.5 30
q-77 0 -145.5 -31.5t-111 -101.5t-42.5 -187t42.5 -190t111 -107t145.5 -34z" />
    <glyph glyph-name="aacute" unicode="&#xe1;" horiz-adv-x="1243" 
d="M496 -22q-178 0 -289.5 83.5t-111.5 233.5q0 109 59.5 179.5t160.5 108.5t224 50q182 18 254.5 34.5t72.5 53.5v2q0 70 -63 108t-178 38q-121 0 -185.5 -43t-64.5 -134h-260q0 125 66.5 211.5t182.5 131.5t263 45q136 0 250.5 -41t183.5 -124t69 -207v-484
q0 -38 2.5 -74.5t10.5 -65.5q10 -33 24 -54.5t22 -29.5h-260q-7 7 -19.5 27.5t-22.5 47.5q-7 20 -11 42q-59 -65 -158.5 -102t-221.5 -37zM560 185q82 0 152.5 28t113 86.5t42.5 150.5v50q-59 -16 -130 -26.5t-142 -17.5q-118 -12 -177.5 -41.5t-59.5 -97.5q0 -132 201 -132
zM492 1213l238 262h211l-268 -262h-181z" />
    <glyph glyph-name="aacute.ss01" horiz-adv-x="1321" 
d="M599 -22q-132 0 -249.5 61t-191 185t-73.5 313q0 181 74.5 302t192.5 181t247 60q98 0 185.5 -36.5t150.5 -106.5v125h264v-1062h-264v117q-63 -69 -150.5 -104t-185.5 -35zM662 204q71 0 133.5 31.5t101 93t38.5 151.5v104q0 90 -39 150.5t-101.5 90.5t-132.5 30
q-77 0 -145.5 -31.5t-111 -101.5t-42.5 -187t42.5 -190t111 -107t145.5 -34zM510 1213l238 262h211l-268 -262h-181z" />
    <glyph glyph-name="abreve" unicode="&#x103;" horiz-adv-x="1243" 
d="M496 -22q-178 0 -289.5 83.5t-111.5 233.5q0 109 59.5 179.5t160.5 108.5t224 50q182 18 254.5 34.5t72.5 53.5v2q0 70 -63 108t-178 38q-121 0 -185.5 -43t-64.5 -134h-260q0 125 66.5 211.5t182.5 131.5t263 45q136 0 250.5 -41t183.5 -124t69 -207v-484
q0 -38 2.5 -74.5t10.5 -65.5q10 -33 24 -54.5t22 -29.5h-260q-7 7 -19.5 27.5t-22.5 47.5q-7 20 -11 42q-59 -65 -158.5 -102t-221.5 -37zM560 185q82 0 152.5 28t113 86.5t42.5 150.5v50q-59 -16 -130 -26.5t-142 -17.5q-118 -12 -177.5 -41.5t-59.5 -97.5q0 -132 201 -132
zM368 1495h156q0 -61 31.5 -101.5t85.5 -40.5q55 0 86 40.5t31 101.5h157q0 -116 -78.5 -180.5t-195.5 -64.5t-195 64.5t-78 180.5z" />
    <glyph glyph-name="abreve.ss01" horiz-adv-x="1321" 
d="M599 -22q-132 0 -249.5 61t-191 185t-73.5 313q0 181 74.5 302t192.5 181t247 60q98 0 185.5 -36.5t150.5 -106.5v125h264v-1062h-264v117q-63 -69 -150.5 -104t-185.5 -35zM662 204q71 0 133.5 31.5t101 93t38.5 151.5v104q0 90 -39 150.5t-101.5 90.5t-132.5 30
q-77 0 -145.5 -31.5t-111 -101.5t-42.5 -187t42.5 -190t111 -107t145.5 -34zM387 1495h156q0 -61 31.5 -101.5t85.5 -40.5q55 0 86 40.5t31 101.5h157q0 -116 -78.5 -180.5t-195.5 -64.5t-195 64.5t-78 180.5z" />
    <glyph glyph-name="uni1EAF" unicode="&#x1eaf;" horiz-adv-x="1243" 
d="M496 -22q-178 0 -289.5 83.5t-111.5 233.5q0 109 59.5 179.5t160.5 108.5t224 50q182 18 254.5 34.5t72.5 53.5v2q0 70 -63 108t-178 38q-121 0 -185.5 -43t-64.5 -134h-260q0 125 66.5 211.5t182.5 131.5t263 45q136 0 250.5 -41t183.5 -124t69 -207v-484
q0 -38 2.5 -74.5t10.5 -65.5q10 -33 24 -54.5t22 -29.5h-260q-7 7 -19.5 27.5t-22.5 47.5q-7 20 -11 42q-59 -65 -158.5 -102t-221.5 -37zM560 185q82 0 152.5 28t113 86.5t42.5 150.5v50q-59 -16 -130 -26.5t-142 -17.5q-118 -12 -177.5 -41.5t-59.5 -97.5q0 -132 201 -132
zM532 1525l276 198h221l-301 -198h-196zM367 1495h156q0 -61 31.5 -101.5t85.5 -40.5q55 0 86 40.5t31 101.5h157q0 -116 -78.5 -180.5t-195.5 -64.5t-195 64.5t-78 180.5z" />
    <glyph glyph-name="uni1EAF.ss01" horiz-adv-x="1321" 
d="M599 -22q-132 0 -249.5 61t-191 185t-73.5 313q0 181 74.5 302t192.5 181t247 60q98 0 185.5 -36.5t150.5 -106.5v125h264v-1062h-264v117q-63 -69 -150.5 -104t-185.5 -35zM662 204q71 0 133.5 31.5t101 93t38.5 151.5v104q0 90 -39 150.5t-101.5 90.5t-132.5 30
q-77 0 -145.5 -31.5t-111 -101.5t-42.5 -187t42.5 -190t111 -107t145.5 -34zM551 1525l276 198h221l-301 -198h-196zM386 1495h156q0 -61 31.5 -101.5t85.5 -40.5q55 0 86 40.5t31 101.5h157q0 -116 -78.5 -180.5t-195.5 -64.5t-195 64.5t-78 180.5z" />
    <glyph glyph-name="uni1EB7" unicode="&#x1eb7;" horiz-adv-x="1243" 
d="M496 -22q-178 0 -289.5 83.5t-111.5 233.5q0 109 59.5 179.5t160.5 108.5t224 50q182 18 254.5 34.5t72.5 53.5v2q0 70 -63 108t-178 38q-121 0 -185.5 -43t-64.5 -134h-260q0 125 66.5 211.5t182.5 131.5t263 45q136 0 250.5 -41t183.5 -124t69 -207v-484
q0 -38 2.5 -74.5t10.5 -65.5q10 -33 24 -54.5t22 -29.5h-260q-7 7 -19.5 27.5t-22.5 47.5q-7 20 -11 42q-59 -65 -158.5 -102t-221.5 -37zM560 185q82 0 152.5 28t113 86.5t42.5 150.5v50q-59 -16 -130 -26.5t-142 -17.5q-118 -12 -177.5 -41.5t-59.5 -97.5q0 -132 201 -132
zM611 -387q-64 0 -111 34t-47 95q0 62 47 96t111 34q62 0 109.5 -34t47.5 -96t-47.5 -95.5t-109.5 -33.5zM368 1495h156q0 -61 31.5 -101.5t85.5 -40.5q55 0 86 40.5t31 101.5h157q0 -116 -78.5 -180.5t-195.5 -64.5t-195 64.5t-78 180.5z" />
    <glyph glyph-name="uni1EB7.ss01" horiz-adv-x="1321" 
d="M599 -22q-132 0 -249.5 61t-191 185t-73.5 313q0 181 74.5 302t192.5 181t247 60q98 0 185.5 -36.5t150.5 -106.5v125h264v-1062h-264v117q-63 -69 -150.5 -104t-185.5 -35zM662 204q71 0 133.5 31.5t101 93t38.5 151.5v104q0 90 -39 150.5t-101.5 90.5t-132.5 30
q-77 0 -145.5 -31.5t-111 -101.5t-42.5 -187t42.5 -190t111 -107t145.5 -34zM666 -387q-64 0 -111 34t-47 95q0 62 47 96t111 34q62 0 109.5 -34t47.5 -96t-47.5 -95.5t-109.5 -33.5zM387 1495h156q0 -61 31.5 -101.5t85.5 -40.5q55 0 86 40.5t31 101.5h157
q0 -116 -78.5 -180.5t-195.5 -64.5t-195 64.5t-78 180.5z" />
    <glyph glyph-name="uni1EB1" unicode="&#x1eb1;" horiz-adv-x="1243" 
d="M496 -22q-178 0 -289.5 83.5t-111.5 233.5q0 109 59.5 179.5t160.5 108.5t224 50q182 18 254.5 34.5t72.5 53.5v2q0 70 -63 108t-178 38q-121 0 -185.5 -43t-64.5 -134h-260q0 125 66.5 211.5t182.5 131.5t263 45q136 0 250.5 -41t183.5 -124t69 -207v-484
q0 -38 2.5 -74.5t10.5 -65.5q10 -33 24 -54.5t22 -29.5h-260q-7 7 -19.5 27.5t-22.5 47.5q-7 20 -11 42q-59 -65 -158.5 -102t-221.5 -37zM560 185q82 0 152.5 28t113 86.5t42.5 150.5v50q-59 -16 -130 -26.5t-142 -17.5q-118 -12 -177.5 -41.5t-59.5 -97.5q0 -132 201 -132
zM759 1525h-196l-301 198h221zM366 1495h156q0 -61 31.5 -101.5t85.5 -40.5q56 0 87 40.5t31 101.5h156q0 -116 -78 -180.5t-196 -64.5q-117 0 -195 64.5t-78 180.5z" />
    <glyph glyph-name="uni1EB1.ss01" horiz-adv-x="1321" 
d="M599 -22q-132 0 -249.5 61t-191 185t-73.5 313q0 181 74.5 302t192.5 181t247 60q98 0 185.5 -36.5t150.5 -106.5v125h264v-1062h-264v117q-63 -69 -150.5 -104t-185.5 -35zM662 204q71 0 133.5 31.5t101 93t38.5 151.5v104q0 90 -39 150.5t-101.5 90.5t-132.5 30
q-77 0 -145.5 -31.5t-111 -101.5t-42.5 -187t42.5 -190t111 -107t145.5 -34zM778 1525h-196l-301 198h221zM385 1495h156q0 -61 31.5 -101.5t85.5 -40.5q56 0 87 40.5t31 101.5h156q0 -116 -78 -180.5t-196 -64.5q-117 0 -195 64.5t-78 180.5z" />
    <glyph glyph-name="uni1EB3" unicode="&#x1eb3;" horiz-adv-x="1243" 
d="M496 -22q-178 0 -289.5 83.5t-111.5 233.5q0 109 59.5 179.5t160.5 108.5t224 50q182 18 254.5 34.5t72.5 53.5v2q0 70 -63 108t-178 38q-121 0 -185.5 -43t-64.5 -134h-260q0 125 66.5 211.5t182.5 131.5t263 45q136 0 250.5 -41t183.5 -124t69 -207v-484
q0 -38 2.5 -74.5t10.5 -65.5q10 -33 24 -54.5t22 -29.5h-260q-7 7 -19.5 27.5t-22.5 47.5q-7 20 -11 42q-59 -65 -158.5 -102t-221.5 -37zM560 185q82 0 152.5 28t113 86.5t42.5 150.5v50q-59 -16 -130 -26.5t-142 -17.5q-118 -12 -177.5 -41.5t-59.5 -97.5q0 -132 201 -132
zM486 1829q110 0 200.5 -8.5t144 -36t53.5 -85.5q0 -75 -78.5 -108.5t-189.5 -33.5l-29 72q33 2 72 7.5t67 18t28 34.5q0 35 -71.5 44.5t-196.5 9.5v86zM368 1495h156q0 -61 31.5 -101.5t85.5 -40.5q55 0 86 40.5t31 101.5h157q0 -116 -78.5 -180.5t-195.5 -64.5t-195 64.5
t-78 180.5z" />
    <glyph glyph-name="uni1EB3.ss01" horiz-adv-x="1321" 
d="M599 -22q-132 0 -249.5 61t-191 185t-73.5 313q0 181 74.5 302t192.5 181t247 60q98 0 185.5 -36.5t150.5 -106.5v125h264v-1062h-264v117q-63 -69 -150.5 -104t-185.5 -35zM662 204q71 0 133.5 31.5t101 93t38.5 151.5v104q0 90 -39 150.5t-101.5 90.5t-132.5 30
q-77 0 -145.5 -31.5t-111 -101.5t-42.5 -187t42.5 -190t111 -107t145.5 -34zM505 1829q110 0 200.5 -8.5t144 -36t53.5 -85.5q0 -75 -78.5 -108.5t-189.5 -33.5l-29 72q33 2 72 7.5t67 18t28 34.5q0 35 -71.5 44.5t-196.5 9.5v86zM387 1495h156q0 -61 31.5 -101.5
t85.5 -40.5q55 0 86 40.5t31 101.5h157q0 -116 -78.5 -180.5t-195.5 -64.5t-195 64.5t-78 180.5z" />
    <glyph glyph-name="uni1EB5" unicode="&#x1eb5;" horiz-adv-x="1243" 
d="M496 -22q-178 0 -289.5 83.5t-111.5 233.5q0 109 59.5 179.5t160.5 108.5t224 50q182 18 254.5 34.5t72.5 53.5v2q0 70 -63 108t-178 38q-121 0 -185.5 -43t-64.5 -134h-260q0 125 66.5 211.5t182.5 131.5t263 45q136 0 250.5 -41t183.5 -124t69 -207v-484
q0 -38 2.5 -74.5t10.5 -65.5q10 -33 24 -54.5t22 -29.5h-260q-7 7 -19.5 27.5t-22.5 47.5q-7 20 -11 42q-59 -65 -158.5 -102t-221.5 -37zM560 185q82 0 152.5 28t113 86.5t42.5 150.5v50q-59 -16 -130 -26.5t-142 -17.5q-118 -12 -177.5 -41.5t-59.5 -97.5q0 -132 201 -132
zM965 1769q-1 -44 -20.5 -91.5t-60.5 -80.5t-106 -33q-53 0 -86.5 20t-56.5 40q-21 19 -42.5 33t-50.5 14q-37 0 -54 -24.5t-19 -59.5h-138q1 46 22.5 94t65 80.5t108.5 32.5q48 0 82.5 -19.5t57.5 -38.5t46.5 -33.5t49.5 -14.5q35 0 49 23t15 58h138zM368 1495h156
q0 -61 31.5 -101.5t85.5 -40.5q56 0 87 40.5t31 101.5h156q0 -116 -78 -180.5t-196 -64.5q-117 0 -195 64.5t-78 180.5z" />
    <glyph glyph-name="uni1EB5.ss01" horiz-adv-x="1321" 
d="M599 -22q-132 0 -249.5 61t-191 185t-73.5 313q0 181 74.5 302t192.5 181t247 60q98 0 185.5 -36.5t150.5 -106.5v125h264v-1062h-264v117q-63 -69 -150.5 -104t-185.5 -35zM662 204q71 0 133.5 31.5t101 93t38.5 151.5v104q0 90 -39 150.5t-101.5 90.5t-132.5 30
q-77 0 -145.5 -31.5t-111 -101.5t-42.5 -187t42.5 -190t111 -107t145.5 -34zM983 1769q-1 -44 -20.5 -91.5t-60.5 -80.5t-106 -33q-53 0 -86.5 20t-56.5 40q-21 19 -42.5 33t-50.5 14q-37 0 -54 -24.5t-19 -59.5h-138q1 46 22.5 94t65 80.5t108.5 32.5q48 0 82.5 -19.5
t57.5 -38.5t46.5 -33.5t49.5 -14.5q35 0 49 23t15 58h138zM386 1495h156q0 -61 31.5 -101.5t85.5 -40.5q56 0 87 40.5t31 101.5h156q0 -116 -78 -180.5t-196 -64.5q-117 0 -195 64.5t-78 180.5z" />
    <glyph glyph-name="uni01CE" unicode="&#x1ce;" horiz-adv-x="1243" 
d="M496 -22q-178 0 -289.5 83.5t-111.5 233.5q0 109 59.5 179.5t160.5 108.5t224 50q182 18 254.5 34.5t72.5 53.5v2q0 70 -63 108t-178 38q-121 0 -185.5 -43t-64.5 -134h-260q0 125 66.5 211.5t182.5 131.5t263 45q136 0 250.5 -41t183.5 -124t69 -207v-484
q0 -38 2.5 -74.5t10.5 -65.5q10 -33 24 -54.5t22 -29.5h-260q-7 7 -19.5 27.5t-22.5 47.5q-7 20 -11 42q-59 -65 -158.5 -102t-221.5 -37zM560 185q82 0 152.5 28t113 86.5t42.5 150.5v50q-59 -16 -130 -26.5t-142 -17.5q-118 -12 -177.5 -41.5t-59.5 -97.5q0 -132 201 -132
zM324 1475h171l145 -171l146 171h173l-231 -262h-174z" />
    <glyph glyph-name="uni01CE.ss01" horiz-adv-x="1321" 
d="M599 -22q-132 0 -249.5 61t-191 185t-73.5 313q0 181 74.5 302t192.5 181t247 60q98 0 185.5 -36.5t150.5 -106.5v125h264v-1062h-264v117q-63 -69 -150.5 -104t-185.5 -35zM662 204q71 0 133.5 31.5t101 93t38.5 151.5v104q0 90 -39 150.5t-101.5 90.5t-132.5 30
q-77 0 -145.5 -31.5t-111 -101.5t-42.5 -187t42.5 -190t111 -107t145.5 -34zM343 1475h171l145 -171l146 171h173l-231 -262h-174z" />
    <glyph glyph-name="acircumflex" unicode="&#xe2;" horiz-adv-x="1243" 
d="M496 -22q-178 0 -289.5 83.5t-111.5 233.5q0 109 59.5 179.5t160.5 108.5t224 50q182 18 254.5 34.5t72.5 53.5v2q0 70 -63 108t-178 38q-121 0 -185.5 -43t-64.5 -134h-260q0 125 66.5 211.5t182.5 131.5t263 45q136 0 250.5 -41t183.5 -124t69 -207v-484
q0 -38 2.5 -74.5t10.5 -65.5q10 -33 24 -54.5t22 -29.5h-260q-7 7 -19.5 27.5t-22.5 47.5q-7 20 -11 42q-59 -65 -158.5 -102t-221.5 -37zM560 185q82 0 152.5 28t113 86.5t42.5 150.5v50q-59 -16 -130 -26.5t-142 -17.5q-118 -12 -177.5 -41.5t-59.5 -97.5q0 -132 201 -132
zM324 1213l230 262h174l231 -262h-173l-146 171l-145 -171h-171z" />
    <glyph glyph-name="acircumflex.ss01" horiz-adv-x="1321" 
d="M599 -22q-132 0 -249.5 61t-191 185t-73.5 313q0 181 74.5 302t192.5 181t247 60q98 0 185.5 -36.5t150.5 -106.5v125h264v-1062h-264v117q-63 -69 -150.5 -104t-185.5 -35zM662 204q71 0 133.5 31.5t101 93t38.5 151.5v104q0 90 -39 150.5t-101.5 90.5t-132.5 30
q-77 0 -145.5 -31.5t-111 -101.5t-42.5 -187t42.5 -190t111 -107t145.5 -34zM343 1213l230 262h174l231 -262h-173l-146 171l-145 -171h-171z" />
    <glyph glyph-name="uni1EA5" unicode="&#x1ea5;" horiz-adv-x="1243" 
d="M496 -22q-178 0 -289.5 83.5t-111.5 233.5q0 109 59.5 179.5t160.5 108.5t224 50q182 18 254.5 34.5t72.5 53.5v2q0 70 -63 108t-178 38q-121 0 -185.5 -43t-64.5 -134h-260q0 125 66.5 211.5t182.5 131.5t263 45q136 0 250.5 -41t183.5 -124t69 -207v-484
q0 -38 2.5 -74.5t10.5 -65.5q10 -33 24 -54.5t22 -29.5h-260q-7 7 -19.5 27.5t-22.5 47.5q-7 20 -11 42q-59 -65 -158.5 -102t-221.5 -37zM560 185q82 0 152.5 28t113 86.5t42.5 150.5v50q-59 -16 -130 -26.5t-142 -17.5q-118 -12 -177.5 -41.5t-59.5 -97.5q0 -132 201 -132
zM796 1433l192 263h179l-214 -263h-157zM323 1213l230 262h174l231 -262h-173l-146 171l-145 -171h-171z" />
    <glyph glyph-name="uni1EA5.ss01" horiz-adv-x="1321" 
d="M599 -22q-132 0 -249.5 61t-191 185t-73.5 313q0 181 74.5 302t192.5 181t247 60q98 0 185.5 -36.5t150.5 -106.5v125h264v-1062h-264v117q-63 -69 -150.5 -104t-185.5 -35zM662 204q71 0 133.5 31.5t101 93t38.5 151.5v104q0 90 -39 150.5t-101.5 90.5t-132.5 30
q-77 0 -145.5 -31.5t-111 -101.5t-42.5 -187t42.5 -190t111 -107t145.5 -34zM815 1433l192 263h179l-214 -263h-157zM342 1213l230 262h174l231 -262h-173l-146 171l-145 -171h-171z" />
    <glyph glyph-name="uni1EAD" unicode="&#x1ead;" horiz-adv-x="1243" 
d="M496 -22q-178 0 -289.5 83.5t-111.5 233.5q0 109 59.5 179.5t160.5 108.5t224 50q182 18 254.5 34.5t72.5 53.5v2q0 70 -63 108t-178 38q-121 0 -185.5 -43t-64.5 -134h-260q0 125 66.5 211.5t182.5 131.5t263 45q136 0 250.5 -41t183.5 -124t69 -207v-484
q0 -38 2.5 -74.5t10.5 -65.5q10 -33 24 -54.5t22 -29.5h-260q-7 7 -19.5 27.5t-22.5 47.5q-7 20 -11 42q-59 -65 -158.5 -102t-221.5 -37zM560 185q82 0 152.5 28t113 86.5t42.5 150.5v50q-59 -16 -130 -26.5t-142 -17.5q-118 -12 -177.5 -41.5t-59.5 -97.5q0 -132 201 -132
zM611 -387q-64 0 -111 34t-47 95q0 62 47 96t111 34q62 0 109.5 -34t47.5 -96t-47.5 -95.5t-109.5 -33.5zM324 1213l230 262h174l231 -262h-173l-146 171l-145 -171h-171z" />
    <glyph glyph-name="uni1EAD.ss01" horiz-adv-x="1321" 
d="M599 -22q-132 0 -249.5 61t-191 185t-73.5 313q0 181 74.5 302t192.5 181t247 60q98 0 185.5 -36.5t150.5 -106.5v125h264v-1062h-264v117q-63 -69 -150.5 -104t-185.5 -35zM662 204q71 0 133.5 31.5t101 93t38.5 151.5v104q0 90 -39 150.5t-101.5 90.5t-132.5 30
q-77 0 -145.5 -31.5t-111 -101.5t-42.5 -187t42.5 -190t111 -107t145.5 -34zM666 -387q-64 0 -111 34t-47 95q0 62 47 96t111 34q62 0 109.5 -34t47.5 -96t-47.5 -95.5t-109.5 -33.5zM343 1213l230 262h174l231 -262h-173l-146 171l-145 -171h-171z" />
    <glyph glyph-name="uni1EA7" unicode="&#x1ea7;" horiz-adv-x="1243" 
d="M496 -22q-178 0 -289.5 83.5t-111.5 233.5q0 109 59.5 179.5t160.5 108.5t224 50q182 18 254.5 34.5t72.5 53.5v2q0 70 -63 108t-178 38q-121 0 -185.5 -43t-64.5 -134h-260q0 125 66.5 211.5t182.5 131.5t263 45q136 0 250.5 -41t183.5 -124t69 -207v-484
q0 -38 2.5 -74.5t10.5 -65.5q10 -33 24 -54.5t22 -29.5h-260q-7 7 -19.5 27.5t-22.5 47.5q-7 20 -11 42q-59 -65 -158.5 -102t-221.5 -37zM560 185q82 0 152.5 28t113 86.5t42.5 150.5v50q-59 -16 -130 -26.5t-142 -17.5q-118 -12 -177.5 -41.5t-59.5 -97.5q0 -132 201 -132
zM1034 1433h-158l-213 263h179zM325 1213l230 262h174l231 -262h-173l-146 171l-145 -171h-171z" />
    <glyph glyph-name="uni1EA7.ss01" horiz-adv-x="1321" 
d="M599 -22q-132 0 -249.5 61t-191 185t-73.5 313q0 181 74.5 302t192.5 181t247 60q98 0 185.5 -36.5t150.5 -106.5v125h264v-1062h-264v117q-63 -69 -150.5 -104t-185.5 -35zM662 204q71 0 133.5 31.5t101 93t38.5 151.5v104q0 90 -39 150.5t-101.5 90.5t-132.5 30
q-77 0 -145.5 -31.5t-111 -101.5t-42.5 -187t42.5 -190t111 -107t145.5 -34zM1053 1433h-158l-213 263h179zM344 1213l230 262h174l231 -262h-173l-146 171l-145 -171h-171z" />
    <glyph glyph-name="uni1EA9" unicode="&#x1ea9;" horiz-adv-x="1243" 
d="M496 -22q-178 0 -289.5 83.5t-111.5 233.5q0 109 59.5 179.5t160.5 108.5t224 50q182 18 254.5 34.5t72.5 53.5v2q0 70 -63 108t-178 38q-121 0 -185.5 -43t-64.5 -134h-260q0 125 66.5 211.5t182.5 131.5t263 45q136 0 250.5 -41t183.5 -124t69 -207v-484
q0 -38 2.5 -74.5t10.5 -65.5q10 -33 24 -54.5t22 -29.5h-260q-7 7 -19.5 27.5t-22.5 47.5q-7 20 -11 42q-59 -65 -158.5 -102t-221.5 -37zM560 185q82 0 152.5 28t113 86.5t42.5 150.5v50q-59 -16 -130 -26.5t-142 -17.5q-118 -12 -177.5 -41.5t-59.5 -97.5q0 -132 201 -132
zM867 1431l-26 65q30 2 66 7t61.5 16.5t25.5 31.5q0 33 -65.5 41.5t-180.5 8.5v77q101 0 183 -7.5t131 -32.5t49 -78q0 -68 -72 -98.5t-172 -30.5zM324 1213l230 262h174l231 -262h-173l-146 171l-145 -171h-171z" />
    <glyph glyph-name="uni1EA9.ss01" horiz-adv-x="1321" 
d="M599 -22q-132 0 -249.5 61t-191 185t-73.5 313q0 181 74.5 302t192.5 181t247 60q98 0 185.5 -36.5t150.5 -106.5v125h264v-1062h-264v117q-63 -69 -150.5 -104t-185.5 -35zM662 204q71 0 133.5 31.5t101 93t38.5 151.5v104q0 90 -39 150.5t-101.5 90.5t-132.5 30
q-77 0 -145.5 -31.5t-111 -101.5t-42.5 -187t42.5 -190t111 -107t145.5 -34zM886 1431l-26 65q30 2 66 7t61.5 16.5t25.5 31.5q0 33 -65.5 41.5t-180.5 8.5v77q101 0 183 -7.5t131 -32.5t49 -78q0 -68 -72 -98.5t-172 -30.5zM343 1213l230 262h174l231 -262h-173l-146 171
l-145 -171h-171z" />
    <glyph glyph-name="uni1EAB" unicode="&#x1eab;" horiz-adv-x="1243" 
d="M496 -22q-178 0 -289.5 83.5t-111.5 233.5q0 109 59.5 179.5t160.5 108.5t224 50q182 18 254.5 34.5t72.5 53.5v2q0 70 -63 108t-178 38q-121 0 -185.5 -43t-64.5 -134h-260q0 125 66.5 211.5t182.5 131.5t263 45q136 0 250.5 -41t183.5 -124t69 -207v-484
q0 -38 2.5 -74.5t10.5 -65.5q10 -33 24 -54.5t22 -29.5h-260q-7 7 -19.5 27.5t-22.5 47.5q-7 20 -11 42q-59 -65 -158.5 -102t-221.5 -37zM560 185q82 0 152.5 28t113 86.5t42.5 150.5v50q-59 -16 -130 -26.5t-142 -17.5q-118 -12 -177.5 -41.5t-59.5 -97.5q0 -132 201 -132
zM773 1546q-53 0 -87 18.5t-56 39.5q-21 19 -42.5 33.5t-50.5 14.5q-37 0 -54 -24.5t-19 -58.5h-138q1 45 23 93t65 81t108 33q48 0 82.5 -20t57.5 -39t46.5 -34t50.5 -15q34 0 48 23.5t15 58.5h138q-1 -44 -20.5 -91.5t-60.5 -80t-106 -32.5zM324 1213l230 262h174
l231 -262h-173l-146 171l-145 -171h-171z" />
    <glyph glyph-name="uni1EAB.ss01" horiz-adv-x="1321" 
d="M599 -22q-132 0 -249.5 61t-191 185t-73.5 313q0 181 74.5 302t192.5 181t247 60q98 0 185.5 -36.5t150.5 -106.5v125h264v-1062h-264v117q-63 -69 -150.5 -104t-185.5 -35zM662 204q71 0 133.5 31.5t101 93t38.5 151.5v104q0 90 -39 150.5t-101.5 90.5t-132.5 30
q-77 0 -145.5 -31.5t-111 -101.5t-42.5 -187t42.5 -190t111 -107t145.5 -34zM792 1546q-53 0 -87 18.5t-56 39.5q-21 19 -42.5 33.5t-50.5 14.5q-37 0 -54 -24.5t-19 -58.5h-138q1 45 23 93t65 81t108 33q48 0 82.5 -20t57.5 -39t46.5 -34t50.5 -15q34 0 48 23.5t15 58.5
h138q-1 -44 -20.5 -91.5t-60.5 -80t-106 -32.5zM343 1213l230 262h174l231 -262h-173l-146 171l-145 -171h-171z" />
    <glyph glyph-name="uni0201" unicode="&#x201;" horiz-adv-x="1243" 
d="M496 -22q-178 0 -289.5 83.5t-111.5 233.5q0 109 59.5 179.5t160.5 108.5t224 50q182 18 254.5 34.5t72.5 53.5v2q0 70 -63 108t-178 38q-121 0 -185.5 -43t-64.5 -134h-260q0 125 66.5 211.5t182.5 131.5t263 45q136 0 250.5 -41t183.5 -124t69 -207v-484
q0 -38 2.5 -74.5t10.5 -65.5q10 -33 24 -54.5t22 -29.5h-260q-7 7 -19.5 27.5t-22.5 47.5q-7 20 -11 42q-59 -65 -158.5 -102t-221.5 -37zM560 185q82 0 152.5 28t113 86.5t42.5 150.5v50q-59 -16 -130 -26.5t-142 -17.5q-118 -12 -177.5 -41.5t-59.5 -97.5q0 -132 201 -132
zM888 1213h-145l-180 262h172zM565 1213h-146l-198 262h171z" />
    <glyph glyph-name="uni0201.ss01" horiz-adv-x="1321" 
d="M599 -22q-132 0 -249.5 61t-191 185t-73.5 313q0 181 74.5 302t192.5 181t247 60q98 0 185.5 -36.5t150.5 -106.5v125h264v-1062h-264v117q-63 -69 -150.5 -104t-185.5 -35zM662 204q71 0 133.5 31.5t101 93t38.5 151.5v104q0 90 -39 150.5t-101.5 90.5t-132.5 30
q-77 0 -145.5 -31.5t-111 -101.5t-42.5 -187t42.5 -190t111 -107t145.5 -34zM907 1213h-145l-180 262h172zM584 1213h-146l-198 262h171z" />
    <glyph glyph-name="adieresis" unicode="&#xe4;" horiz-adv-x="1243" 
d="M496 -22q-178 0 -289.5 83.5t-111.5 233.5q0 109 59.5 179.5t160.5 108.5t224 50q182 18 254.5 34.5t72.5 53.5v2q0 70 -63 108t-178 38q-121 0 -185.5 -43t-64.5 -134h-260q0 125 66.5 211.5t182.5 131.5t263 45q136 0 250.5 -41t183.5 -124t69 -207v-484
q0 -38 2.5 -74.5t10.5 -65.5q10 -33 24 -54.5t22 -29.5h-260q-7 7 -19.5 27.5t-22.5 47.5q-7 20 -11 42q-59 -65 -158.5 -102t-221.5 -37zM560 185q82 0 152.5 28t113 86.5t42.5 150.5v50q-59 -16 -130 -26.5t-142 -17.5q-118 -12 -177.5 -41.5t-59.5 -97.5q0 -132 201 -132
zM414 1254q-58 0 -101.5 31.5t-43.5 88.5t43.5 88t101.5 31t102 -31t44 -88t-44 -88.5t-102 -31.5zM866 1254q-59 0 -102 31.5t-43 88.5t43 88t102 31q58 0 101.5 -31t43.5 -88t-43.5 -88.5t-101.5 -31.5z" />
    <glyph glyph-name="adieresis.ss01" horiz-adv-x="1321" 
d="M599 -22q-132 0 -249.5 61t-191 185t-73.5 313q0 181 74.5 302t192.5 181t247 60q98 0 185.5 -36.5t150.5 -106.5v125h264v-1062h-264v117q-63 -69 -150.5 -104t-185.5 -35zM662 204q71 0 133.5 31.5t101 93t38.5 151.5v104q0 90 -39 150.5t-101.5 90.5t-132.5 30
q-77 0 -145.5 -31.5t-111 -101.5t-42.5 -187t42.5 -190t111 -107t145.5 -34zM433 1254q-58 0 -101.5 31.5t-43.5 88.5t43.5 88t101.5 31t102 -31t44 -88t-44 -88.5t-102 -31.5zM885 1254q-59 0 -102 31.5t-43 88.5t43 88t102 31q58 0 101.5 -31t43.5 -88t-43.5 -88.5
t-101.5 -31.5z" />
    <glyph glyph-name="uni01DF" unicode="&#x1df;" horiz-adv-x="1243" 
d="M496 -22q-178 0 -289.5 83.5t-111.5 233.5q0 109 59.5 179.5t160.5 108.5t224 50q182 18 254.5 34.5t72.5 53.5v2q0 70 -63 108t-178 38q-121 0 -185.5 -43t-64.5 -134h-260q0 125 66.5 211.5t182.5 131.5t263 45q136 0 250.5 -41t183.5 -124t69 -207v-484
q0 -38 2.5 -74.5t10.5 -65.5q10 -33 24 -54.5t22 -29.5h-260q-7 7 -19.5 27.5t-22.5 47.5q-7 20 -11 42q-59 -65 -158.5 -102t-221.5 -37zM560 185q82 0 152.5 28t113 86.5t42.5 150.5v50q-59 -16 -130 -26.5t-142 -17.5q-118 -12 -177.5 -41.5t-59.5 -97.5q0 -132 201 -132
zM414 1254q-58 0 -101.5 31.5t-43.5 88.5t43.5 88t101.5 31t102 -31t44 -88t-44 -88.5t-102 -31.5zM866 1254q-59 0 -102 31.5t-43 88.5t43 88t102 31q58 0 101.5 -31t43.5 -88t-43.5 -88.5t-101.5 -31.5zM347 1629v111h588v-111h-588z" />
    <glyph glyph-name="uni01DF.ss01" horiz-adv-x="1321" 
d="M599 -22q-132 0 -249.5 61t-191 185t-73.5 313q0 181 74.5 302t192.5 181t247 60q98 0 185.5 -36.5t150.5 -106.5v125h264v-1062h-264v117q-63 -69 -150.5 -104t-185.5 -35zM662 204q71 0 133.5 31.5t101 93t38.5 151.5v104q0 90 -39 150.5t-101.5 90.5t-132.5 30
q-77 0 -145.5 -31.5t-111 -101.5t-42.5 -187t42.5 -190t111 -107t145.5 -34zM433 1254q-58 0 -101.5 31.5t-43.5 88.5t43.5 88t101.5 31t102 -31t44 -88t-44 -88.5t-102 -31.5zM885 1254q-59 0 -102 31.5t-43 88.5t43 88t102 31q58 0 101.5 -31t43.5 -88t-43.5 -88.5
t-101.5 -31.5zM365 1629v111h588v-111h-588z" />
    <glyph glyph-name="uni1EA1" unicode="&#x1ea1;" horiz-adv-x="1243" 
d="M496 -22q-178 0 -289.5 83.5t-111.5 233.5q0 109 59.5 179.5t160.5 108.5t224 50q182 18 254.5 34.5t72.5 53.5v2q0 70 -63 108t-178 38q-121 0 -185.5 -43t-64.5 -134h-260q0 125 66.5 211.5t182.5 131.5t263 45q136 0 250.5 -41t183.5 -124t69 -207v-484
q0 -38 2.5 -74.5t10.5 -65.5q10 -33 24 -54.5t22 -29.5h-260q-7 7 -19.5 27.5t-22.5 47.5q-7 20 -11 42q-59 -65 -158.5 -102t-221.5 -37zM560 185q82 0 152.5 28t113 86.5t42.5 150.5v50q-59 -16 -130 -26.5t-142 -17.5q-118 -12 -177.5 -41.5t-59.5 -97.5q0 -132 201 -132
zM611 -387q-64 0 -111 34t-47 95q0 62 47 96t111 34q62 0 109.5 -34t47.5 -96t-47.5 -95.5t-109.5 -33.5z" />
    <glyph glyph-name="uni1EA1.ss01" horiz-adv-x="1321" 
d="M599 -22q-132 0 -249.5 61t-191 185t-73.5 313q0 181 74.5 302t192.5 181t247 60q98 0 185.5 -36.5t150.5 -106.5v125h264v-1062h-264v117q-63 -69 -150.5 -104t-185.5 -35zM662 204q71 0 133.5 31.5t101 93t38.5 151.5v104q0 90 -39 150.5t-101.5 90.5t-132.5 30
q-77 0 -145.5 -31.5t-111 -101.5t-42.5 -187t42.5 -190t111 -107t145.5 -34zM666 -387q-64 0 -111 34t-47 95q0 62 47 96t111 34q62 0 109.5 -34t47.5 -96t-47.5 -95.5t-109.5 -33.5z" />
    <glyph glyph-name="agrave" unicode="&#xe0;" horiz-adv-x="1243" 
d="M496 -22q-178 0 -289.5 83.5t-111.5 233.5q0 109 59.5 179.5t160.5 108.5t224 50q182 18 254.5 34.5t72.5 53.5v2q0 70 -63 108t-178 38q-121 0 -185.5 -43t-64.5 -134h-260q0 125 66.5 211.5t182.5 131.5t263 45q136 0 250.5 -41t183.5 -124t69 -207v-484
q0 -38 2.5 -74.5t10.5 -65.5q10 -33 24 -54.5t22 -29.5h-260q-7 7 -19.5 27.5t-22.5 47.5q-7 20 -11 42q-59 -65 -158.5 -102t-221.5 -37zM560 185q82 0 152.5 28t113 86.5t42.5 150.5v50q-59 -16 -130 -26.5t-142 -17.5q-118 -12 -177.5 -41.5t-59.5 -97.5q0 -132 201 -132
zM785 1209h-182l-267 262h210z" />
    <glyph glyph-name="agrave.ss01" horiz-adv-x="1321" 
d="M599 -22q-132 0 -249.5 61t-191 185t-73.5 313q0 181 74.5 302t192.5 181t247 60q98 0 185.5 -36.5t150.5 -106.5v125h264v-1062h-264v117q-63 -69 -150.5 -104t-185.5 -35zM662 204q71 0 133.5 31.5t101 93t38.5 151.5v104q0 90 -39 150.5t-101.5 90.5t-132.5 30
q-77 0 -145.5 -31.5t-111 -101.5t-42.5 -187t42.5 -190t111 -107t145.5 -34zM804 1209h-182l-267 262h210z" />
    <glyph glyph-name="uni1EA3" unicode="&#x1ea3;" horiz-adv-x="1243" 
d="M496 -22q-178 0 -289.5 83.5t-111.5 233.5q0 109 59.5 179.5t160.5 108.5t224 50q182 18 254.5 34.5t72.5 53.5v2q0 70 -63 108t-178 38q-121 0 -185.5 -43t-64.5 -134h-260q0 125 66.5 211.5t182.5 131.5t263 45q136 0 250.5 -41t183.5 -124t69 -207v-484
q0 -38 2.5 -74.5t10.5 -65.5q10 -33 24 -54.5t22 -29.5h-260q-7 7 -19.5 27.5t-22.5 47.5q-7 20 -11 42q-59 -65 -158.5 -102t-221.5 -37zM560 185q82 0 152.5 28t113 86.5t42.5 150.5v50q-59 -16 -130 -26.5t-142 -17.5q-118 -12 -177.5 -41.5t-59.5 -97.5q0 -132 201 -132
zM437 1506q110 0 200.5 -8.5t144 -36.5t53.5 -85q0 -75 -79 -109t-190 -34l-28 73q33 1 72 6.5t67 18t28 35.5q0 35 -71.5 44.5t-196.5 9.5v86z" />
    <glyph glyph-name="uni1EA3.ss01" horiz-adv-x="1321" 
d="M599 -22q-132 0 -249.5 61t-191 185t-73.5 313q0 181 74.5 302t192.5 181t247 60q98 0 185.5 -36.5t150.5 -106.5v125h264v-1062h-264v117q-63 -69 -150.5 -104t-185.5 -35zM662 204q71 0 133.5 31.5t101 93t38.5 151.5v104q0 90 -39 150.5t-101.5 90.5t-132.5 30
q-77 0 -145.5 -31.5t-111 -101.5t-42.5 -187t42.5 -190t111 -107t145.5 -34zM456 1506q110 0 200.5 -8.5t144 -36.5t53.5 -85q0 -75 -79 -109t-190 -34l-28 73q33 1 72 6.5t67 18t28 35.5q0 35 -71.5 44.5t-196.5 9.5v86z" />
    <glyph glyph-name="uni0203" unicode="&#x203;" horiz-adv-x="1243" 
d="M496 -22q-178 0 -289.5 83.5t-111.5 233.5q0 109 59.5 179.5t160.5 108.5t224 50q182 18 254.5 34.5t72.5 53.5v2q0 70 -63 108t-178 38q-121 0 -185.5 -43t-64.5 -134h-260q0 125 66.5 211.5t182.5 131.5t263 45q136 0 250.5 -41t183.5 -124t69 -207v-484
q0 -38 2.5 -74.5t10.5 -65.5q10 -33 24 -54.5t22 -29.5h-260q-7 7 -19.5 27.5t-22.5 47.5q-7 20 -11 42q-59 -65 -158.5 -102t-221.5 -37zM560 185q82 0 152.5 28t113 86.5t42.5 150.5v50q-59 -16 -130 -26.5t-142 -17.5q-118 -12 -177.5 -41.5t-59.5 -97.5q0 -132 201 -132
zM368 1256q0 116 78 174t195 58q118 0 196 -58t78 -174h-156q0 61 -31.5 94.5t-86.5 33.5q-54 0 -85.5 -33.5t-31.5 -94.5h-156z" />
    <glyph glyph-name="uni0203.ss01" horiz-adv-x="1321" 
d="M599 -22q-132 0 -249.5 61t-191 185t-73.5 313q0 181 74.5 302t192.5 181t247 60q98 0 185.5 -36.5t150.5 -106.5v125h264v-1062h-264v117q-63 -69 -150.5 -104t-185.5 -35zM662 204q71 0 133.5 31.5t101 93t38.5 151.5v104q0 90 -39 150.5t-101.5 90.5t-132.5 30
q-77 0 -145.5 -31.5t-111 -101.5t-42.5 -187t42.5 -190t111 -107t145.5 -34zM386 1256q0 116 78 174t195 58q118 0 196 -58t78 -174h-156q0 61 -31.5 94.5t-86.5 33.5q-54 0 -85.5 -33.5t-31.5 -94.5h-156z" />
    <glyph glyph-name="amacron" unicode="&#x101;" horiz-adv-x="1243" 
d="M496 -22q-178 0 -289.5 83.5t-111.5 233.5q0 109 59.5 179.5t160.5 108.5t224 50q182 18 254.5 34.5t72.5 53.5v2q0 70 -63 108t-178 38q-121 0 -185.5 -43t-64.5 -134h-260q0 125 66.5 211.5t182.5 131.5t263 45q136 0 250.5 -41t183.5 -124t69 -207v-484
q0 -38 2.5 -74.5t10.5 -65.5q10 -33 24 -54.5t22 -29.5h-260q-7 7 -19.5 27.5t-22.5 47.5q-7 20 -11 42q-59 -65 -158.5 -102t-221.5 -37zM560 185q82 0 152.5 28t113 86.5t42.5 150.5v50q-59 -16 -130 -26.5t-142 -17.5q-118 -12 -177.5 -41.5t-59.5 -97.5q0 -132 201 -132
zM347 1297v112h588v-112h-588z" />
    <glyph glyph-name="amacron.ss01" horiz-adv-x="1321" 
d="M599 -22q-132 0 -249.5 61t-191 185t-73.5 313q0 181 74.5 302t192.5 181t247 60q98 0 185.5 -36.5t150.5 -106.5v125h264v-1062h-264v117q-63 -69 -150.5 -104t-185.5 -35zM662 204q71 0 133.5 31.5t101 93t38.5 151.5v104q0 90 -39 150.5t-101.5 90.5t-132.5 30
q-77 0 -145.5 -31.5t-111 -101.5t-42.5 -187t42.5 -190t111 -107t145.5 -34zM366 1297v112h588v-112h-588z" />
    <glyph glyph-name="aogonek" unicode="&#x105;" horiz-adv-x="1243" 
d="M496 -22q-178 0 -289.5 83.5t-111.5 233.5q0 109 59.5 179.5t160.5 108.5t224 50q182 18 254.5 34.5t72.5 53.5v2q0 70 -63 108t-178 38q-121 0 -185.5 -43t-64.5 -134h-260q0 125 66.5 211.5t182.5 131.5t263 45q136 0 250.5 -41t183.5 -124t69 -207v-484
q0 -38 2.5 -74.5t10.5 -65.5q10 -33 24 -54.5t22 -29.5h-260q-7 7 -19.5 27.5t-22.5 47.5q-7 20 -11 42q-59 -65 -158.5 -102t-221.5 -37zM560 185q82 0 152.5 28t113 86.5t42.5 150.5v50q-59 -16 -130 -26.5t-142 -17.5q-118 -12 -177.5 -41.5t-59.5 -97.5q0 -132 201 -132
zM1190 -309v-129q-20 -2 -44.5 -4t-49.5 -2q-93 0 -160.5 38.5t-67.5 125.5q0 53 31.5 107.5t75.5 100t81 72.5h134q-32 -27 -73.5 -71.5t-72.5 -91.5t-31 -81q0 -40 28.5 -56t70.5 -16q19 0 40 2t38 5z" />
    <glyph glyph-name="aogonek.ss01" horiz-adv-x="1321" 
d="M599 -22q-132 0 -249.5 61t-191 185t-73.5 313q0 181 74.5 302t192.5 181t247 60q98 0 185.5 -36.5t150.5 -106.5v125h264v-1062h-264v117q-63 -69 -150.5 -104t-185.5 -35zM662 204q71 0 133.5 31.5t101 93t38.5 151.5v104q0 90 -39 150.5t-101.5 90.5t-132.5 30
q-77 0 -145.5 -31.5t-111 -101.5t-42.5 -187t42.5 -190t111 -107t145.5 -34zM1199 -309v-129q-20 -2 -44.5 -4t-49.5 -2q-93 0 -160.5 38.5t-67.5 125.5q0 53 31.5 107.5t75.5 100t81 72.5h134q-32 -27 -73.5 -71.5t-72.5 -91.5t-31 -81q0 -40 28.5 -56t70.5 -16q19 0 40 2
t38 5z" />
    <glyph glyph-name="aring" unicode="&#xe5;" horiz-adv-x="1243" 
d="M496 -22q-178 0 -289.5 83.5t-111.5 233.5q0 109 59.5 179.5t160.5 108.5t224 50q182 18 254.5 34.5t72.5 53.5v2q0 70 -63 108t-178 38q-121 0 -185.5 -43t-64.5 -134h-260q0 125 66.5 211.5t182.5 131.5t263 45q136 0 250.5 -41t183.5 -124t69 -207v-484
q0 -38 2.5 -74.5t10.5 -65.5q10 -33 24 -54.5t22 -29.5h-260q-7 7 -19.5 27.5t-22.5 47.5q-7 20 -11 42q-59 -65 -158.5 -102t-221.5 -37zM560 185q82 0 152.5 28t113 86.5t42.5 150.5v50q-59 -16 -130 -26.5t-142 -17.5q-118 -12 -177.5 -41.5t-59.5 -97.5q0 -132 201 -132
zM641 1145q-90 0 -153.5 63.5t-63.5 153.5q0 60 29.5 109t78.5 78.5t109 29.5q90 0 153.5 -63.5t63.5 -153.5t-63.5 -153.5t-153.5 -63.5zM641 1261q42 0 71.5 29.5t29.5 71.5q0 43 -29.5 72t-71.5 29t-71.5 -29t-29.5 -72q0 -42 29.5 -71.5t71.5 -29.5z" />
    <glyph glyph-name="aring.ss01" horiz-adv-x="1321" 
d="M599 -22q-132 0 -249.5 61t-191 185t-73.5 313q0 181 74.5 302t192.5 181t247 60q98 0 185.5 -36.5t150.5 -106.5v125h264v-1062h-264v117q-63 -69 -150.5 -104t-185.5 -35zM662 204q71 0 133.5 31.5t101 93t38.5 151.5v104q0 90 -39 150.5t-101.5 90.5t-132.5 30
q-77 0 -145.5 -31.5t-111 -101.5t-42.5 -187t42.5 -190t111 -107t145.5 -34zM660 1145q-90 0 -153.5 63.5t-63.5 153.5q0 60 29.5 109t78.5 78.5t109 29.5q90 0 153.5 -63.5t63.5 -153.5t-63.5 -153.5t-153.5 -63.5zM660 1261q42 0 71.5 29.5t29.5 71.5q0 43 -29.5 72
t-71.5 29t-71.5 -29t-29.5 -72q0 -42 29.5 -71.5t71.5 -29.5z" />
    <glyph glyph-name="aringacute" unicode="&#x1fb;" horiz-adv-x="1243" 
d="M496 -22q-178 0 -289.5 83.5t-111.5 233.5q0 109 59.5 179.5t160.5 108.5t224 50q182 18 254.5 34.5t72.5 53.5v2q0 70 -63 108t-178 38q-121 0 -185.5 -43t-64.5 -134h-260q0 125 66.5 211.5t182.5 131.5t263 45q136 0 250.5 -41t183.5 -124t69 -207v-484
q0 -38 2.5 -74.5t10.5 -65.5q10 -33 24 -54.5t22 -29.5h-260q-7 7 -19.5 27.5t-22.5 47.5q-7 20 -11 42q-59 -65 -158.5 -102t-221.5 -37zM560 185q82 0 152.5 28t113 86.5t42.5 150.5v50q-59 -16 -130 -26.5t-142 -17.5q-118 -12 -177.5 -41.5t-59.5 -97.5q0 -132 201 -132
zM641 1145q-90 0 -153.5 63.5t-63.5 153.5q0 60 29.5 109t78.5 78.5t109 29.5q90 0 153.5 -63.5t63.5 -153.5t-63.5 -153.5t-153.5 -63.5zM641 1261q42 0 71.5 29.5t29.5 71.5q0 43 -29.5 72t-71.5 29t-71.5 -29t-29.5 -72q0 -42 29.5 -71.5t71.5 -29.5zM486 1677l238 262
h211l-268 -262h-181z" />
    <glyph glyph-name="aringacute.ss01" horiz-adv-x="1321" 
d="M599 -22q-132 0 -249.5 61t-191 185t-73.5 313q0 181 74.5 302t192.5 181t247 60q98 0 185.5 -36.5t150.5 -106.5v125h264v-1062h-264v117q-63 -69 -150.5 -104t-185.5 -35zM662 204q71 0 133.5 31.5t101 93t38.5 151.5v104q0 90 -39 150.5t-101.5 90.5t-132.5 30
q-77 0 -145.5 -31.5t-111 -101.5t-42.5 -187t42.5 -190t111 -107t145.5 -34zM660 1145q-90 0 -153.5 63.5t-63.5 153.5q0 60 29.5 109t78.5 78.5t109 29.5q90 0 153.5 -63.5t63.5 -153.5t-63.5 -153.5t-153.5 -63.5zM660 1261q42 0 71.5 29.5t29.5 71.5q0 43 -29.5 72
t-71.5 29t-71.5 -29t-29.5 -72q0 -42 29.5 -71.5t71.5 -29.5zM510 1677l238 262h211l-268 -262h-181z" />
    <glyph glyph-name="atilde" unicode="&#xe3;" horiz-adv-x="1243" 
d="M496 -22q-178 0 -289.5 83.5t-111.5 233.5q0 109 59.5 179.5t160.5 108.5t224 50q182 18 254.5 34.5t72.5 53.5v2q0 70 -63 108t-178 38q-121 0 -185.5 -43t-64.5 -134h-260q0 125 66.5 211.5t182.5 131.5t263 45q136 0 250.5 -41t183.5 -124t69 -207v-484
q0 -38 2.5 -74.5t10.5 -65.5q10 -33 24 -54.5t22 -29.5h-260q-7 7 -19.5 27.5t-22.5 47.5q-7 20 -11 42q-59 -65 -158.5 -102t-221.5 -37zM560 185q82 0 152.5 28t113 86.5t42.5 150.5v50q-59 -16 -130 -26.5t-142 -17.5q-118 -12 -177.5 -41.5t-59.5 -97.5q0 -132 201 -132
zM958 1454q-1 -44 -20.5 -91.5t-60.5 -80t-106 -32.5q-51 0 -86 20t-58 39q-22 19 -44.5 33t-51.5 14q-37 0 -52.5 -24.5t-16.5 -58.5h-139q2 45 23.5 93t64.5 81t109 33q48 0 82.5 -20t56.5 -39q23 -19 47 -34t50 -15q35 0 48.5 23.5t15.5 58.5h138z" />
    <glyph glyph-name="atilde.ss01" horiz-adv-x="1321" 
d="M599 -22q-132 0 -249.5 61t-191 185t-73.5 313q0 181 74.5 302t192.5 181t247 60q98 0 185.5 -36.5t150.5 -106.5v125h264v-1062h-264v117q-63 -69 -150.5 -104t-185.5 -35zM662 204q71 0 133.5 31.5t101 93t38.5 151.5v104q0 90 -39 150.5t-101.5 90.5t-132.5 30
q-77 0 -145.5 -31.5t-111 -101.5t-42.5 -187t42.5 -190t111 -107t145.5 -34zM977 1454q-1 -44 -20.5 -91.5t-60.5 -80t-106 -32.5q-51 0 -86 20t-58 39q-22 19 -44.5 33t-51.5 14q-37 0 -52.5 -24.5t-16.5 -58.5h-139q2 45 23.5 93t64.5 81t109 33q48 0 82.5 -20t56.5 -39
q23 -19 47 -34t50 -15q35 0 48.5 23.5t15.5 58.5h138z" />
    <glyph glyph-name="ae" unicode="&#xe6;" horiz-adv-x="2139" 
d="M572 -22q-222 0 -349.5 93t-127.5 248q0 110 65.5 176t175 95t242.5 29q135 0 209 2.5t102.5 15t28.5 40.5v24q0 85 -72 129.5t-186 44.5q-121 0 -201 -44t-80 -135h-260q0 125 74 211t197.5 129.5t270.5 43.5q129 0 237.5 -41t174.5 -125q75 78 183 122t239 44
q172 0 297 -71.5t193.5 -198t68.5 -290.5q0 -46 -3 -74h-865q20 -123 99 -194.5t217 -71.5q93 0 153 25.5t89.5 61.5t33.5 68h260q-8 -83 -73 -165.5t-183.5 -137.5t-287.5 -55q-146 0 -262.5 53.5t-191.5 147.5q-48 -74 -124.5 -118t-165.5 -63t-178 -19zM1190 629h598
q0 12 -3 28q-15 88 -87 155.5t-200 67.5q-121 0 -203.5 -67.5t-104.5 -183.5zM586 187q69 0 140.5 22.5t125.5 82.5t67 171q-67 -9 -145.5 -12t-156.5 -3q-127 0 -192 -24.5t-65 -97.5q0 -70 63 -104.5t163 -34.5z" />
    <glyph glyph-name="aeacute" unicode="&#x1fd;" horiz-adv-x="2139" 
d="M572 -22q-222 0 -349.5 93t-127.5 248q0 110 65.5 176t175 95t242.5 29q135 0 209 2.5t102.5 15t28.5 40.5v24q0 85 -72 129.5t-186 44.5q-121 0 -201 -44t-80 -135h-260q0 125 74 211t197.5 129.5t270.5 43.5q129 0 237.5 -41t174.5 -125q75 78 183 122t239 44
q172 0 297 -71.5t193.5 -198t68.5 -290.5q0 -46 -3 -74h-865q20 -123 99 -194.5t217 -71.5q93 0 153 25.5t89.5 61.5t33.5 68h260q-8 -83 -73 -165.5t-183.5 -137.5t-287.5 -55q-146 0 -262.5 53.5t-191.5 147.5q-48 -74 -124.5 -118t-165.5 -63t-178 -19zM1190 629h598
q0 12 -3 28q-15 88 -87 155.5t-200 67.5q-121 0 -203.5 -67.5t-104.5 -183.5zM586 187q69 0 140.5 22.5t125.5 82.5t67 171q-67 -9 -145.5 -12t-156.5 -3q-127 0 -192 -24.5t-65 -97.5q0 -70 63 -104.5t163 -34.5zM932 1213l238 262h211l-268 -262h-181z" />
    <glyph glyph-name="b" unicode="b" horiz-adv-x="1304" 
d="M132 0v1563h264v-627q64 68 151 106t183 38q129 0 240.5 -63.5t180 -185t68.5 -297.5q0 -181 -67 -305t-178.5 -187.5t-243.5 -63.5q-96 0 -183 40t-151 110v-128h-264zM670 856q-70 0 -132.5 -33.5t-102 -93t-39.5 -137.5v-114q0 -79 39 -139t101.5 -94.5t133.5 -34.5
q115 0 196 79t81 245q0 167 -81 244.5t-196 77.5z" />
    <glyph glyph-name="c" unicode="c" horiz-adv-x="1265" 
d="M657 -22q-169 0 -297.5 69t-201.5 194t-73 293q0 167 73 290t201.5 189.5t297.5 66.5q125 0 222.5 -37t164.5 -98.5t101.5 -135.5t34.5 -146v-8h-261q0 6 -1 11.5t-2 11.5q-13 76 -79 130t-183 54q-126 0 -213.5 -82.5t-87.5 -245.5q0 -162 87.5 -250t213.5 -88
q133 0 195 60t69 143h262q0 -99 -59.5 -196t-176 -161t-287.5 -64z" />
    <glyph glyph-name="cacute" unicode="&#x107;" horiz-adv-x="1265" 
d="M657 -22q-169 0 -297.5 69t-201.5 194t-73 293q0 167 73 290t201.5 189.5t297.5 66.5q125 0 222.5 -37t164.5 -98.5t101.5 -135.5t34.5 -146v-8h-261q0 6 -1 11.5t-2 11.5q-13 76 -79 130t-183 54q-126 0 -213.5 -82.5t-87.5 -245.5q0 -162 87.5 -250t213.5 -88
q133 0 195 60t69 143h262q0 -99 -59.5 -196t-176 -161t-287.5 -64zM489 1213l238 262h211l-268 -262h-181z" />
    <glyph glyph-name="ccaron" unicode="&#x10d;" horiz-adv-x="1265" 
d="M657 -22q-169 0 -297.5 69t-201.5 194t-73 293q0 167 73 290t201.5 189.5t297.5 66.5q125 0 222.5 -37t164.5 -98.5t101.5 -135.5t34.5 -146v-8h-261q0 6 -1 11.5t-2 11.5q-13 76 -79 130t-183 54q-126 0 -213.5 -82.5t-87.5 -245.5q0 -162 87.5 -250t213.5 -88
q133 0 195 60t69 143h262q0 -99 -59.5 -196t-176 -161t-287.5 -64zM322 1475h171l145 -171l146 171h173l-231 -262h-174z" />
    <glyph glyph-name="ccedilla" unicode="&#xe7;" horiz-adv-x="1265" 
d="M753 -82q53 0 100.5 -35.5t47.5 -114.5q0 -64 -38 -105.5t-98 -61.5t-127 -20q-60 0 -118.5 15t-81.5 31l53 99q17 -11 61 -27.5t96 -16.5q57 0 96 23.5t39 67.5q0 36 -20.5 52.5t-50.5 16.5q-25 0 -50 -9t-37 -26l-105 29l63 145q-148 15 -260 87t-175 191t-63 275
q0 167 73 290t201.5 189.5t297.5 66.5q125 0 222.5 -37t164.5 -98.5t101.5 -135.5t34.5 -146v-8h-261q0 6 -1 11.5t-2 11.5q-13 76 -79 130t-183 54q-126 0 -213.5 -82.5t-87.5 -245.5q0 -162 87.5 -250t213.5 -88q133 0 195 60t69 143h262q0 -94 -54.5 -187.5t-161 -158.5
t-262.5 -74l-35 -81q38 20 86 20z" />
    <glyph glyph-name="uni1E09" unicode="&#x1e09;" horiz-adv-x="1265" 
d="M753 -82q53 0 100.5 -35.5t47.5 -114.5q0 -64 -38 -105.5t-98 -61.5t-127 -20q-60 0 -118.5 15t-81.5 31l53 99q17 -11 61 -27.5t96 -16.5q57 0 96 23.5t39 67.5q0 36 -20.5 52.5t-50.5 16.5q-25 0 -50 -9t-37 -26l-105 29l63 145q-148 15 -260 87t-175 191t-63 275
q0 167 73 290t201.5 189.5t297.5 66.5q125 0 222.5 -37t164.5 -98.5t101.5 -135.5t34.5 -146v-8h-261q0 6 -1 11.5t-2 11.5q-13 76 -79 130t-183 54q-126 0 -213.5 -82.5t-87.5 -245.5q0 -162 87.5 -250t213.5 -88q133 0 195 60t69 143h262q0 -94 -54.5 -187.5t-161 -158.5
t-262.5 -74l-35 -81q38 20 86 20zM489 1213l238 262h211l-268 -262h-181z" />
    <glyph glyph-name="ccircumflex" unicode="&#x109;" horiz-adv-x="1265" 
d="M657 -22q-169 0 -297.5 69t-201.5 194t-73 293q0 167 73 290t201.5 189.5t297.5 66.5q125 0 222.5 -37t164.5 -98.5t101.5 -135.5t34.5 -146v-8h-261q0 6 -1 11.5t-2 11.5q-13 76 -79 130t-183 54q-126 0 -213.5 -82.5t-87.5 -245.5q0 -162 87.5 -250t213.5 -88
q133 0 195 60t69 143h262q0 -99 -59.5 -196t-176 -161t-287.5 -64zM322 1213l230 262h174l231 -262h-173l-146 171l-145 -171h-171z" />
    <glyph glyph-name="cdotaccent" unicode="&#x10b;" horiz-adv-x="1265" 
d="M657 -22q-169 0 -297.5 69t-201.5 194t-73 293q0 167 73 290t201.5 189.5t297.5 66.5q125 0 222.5 -37t164.5 -98.5t101.5 -135.5t34.5 -146v-8h-261q0 6 -1 11.5t-2 11.5q-13 76 -79 130t-183 54q-126 0 -213.5 -82.5t-87.5 -245.5q0 -162 87.5 -250t213.5 -88
q133 0 195 60t69 143h262q0 -99 -59.5 -196t-176 -161t-287.5 -64zM639 1258q-63 0 -110.5 34t-47.5 95q0 62 47.5 96t110.5 34q64 0 111 -34t47 -96t-47 -95.5t-111 -33.5z" />
    <glyph glyph-name="d" unicode="d" horiz-adv-x="1298" 
d="M573 -22q-132 0 -243 63.5t-178 187.5t-67 305q0 176 68.5 298t180 185t239.5 63q97 0 184 -38t151 -106v627h264v-1563h-264v127q-63 -69 -149 -109t-186 -40zM634 210q73 0 135 35t100.5 96.5t38.5 141.5v109q0 78 -39.5 137.5t-102 93t-132.5 33.5q-115 0 -196 -77.5
t-81 -244.5q0 -166 81 -245t196 -79z" />
    <glyph glyph-name="eth" unicode="&#xf0;" horiz-adv-x="1349" 
d="M654 -22q-168 0 -296 71t-200.5 196t-72.5 286q0 162 72.5 285.5t200.5 193.5t296 70q130 0 240 -44q-29 70 -67 124t-84 96l-92 -82l-163 88l106 95q-48 24 -100 42.5t-107 33.5l128 135q58 -16 113 -36t107 -47l92 83l162 -90l-101 -91q151 -123 243 -330.5t92 -525.5
q0 -161 -72.5 -286t-200.5 -196t-296 -71zM654 192q135 0 219.5 93.5t84.5 245.5q0 153 -84.5 244t-219.5 91t-219.5 -91t-84.5 -244q0 -152 84.5 -245.5t219.5 -93.5z" />
    <glyph glyph-name="dcaron" unicode="&#x10f;" horiz-adv-x="1458" 
d="M573 -22q-132 0 -243 63.5t-178 187.5t-67 305q0 176 68.5 298t180 185t239.5 63q97 0 184 -38t151 -106v627h264v-1563h-264v127q-63 -69 -149 -109t-186 -40zM634 210q73 0 135 35t100.5 96.5t38.5 141.5v109q0 78 -39.5 137.5t-102 93t-132.5 33.5q-115 0 -196 -77.5
t-81 -244.5q0 -166 81 -245t196 -79zM1454 1563q0 -84 -9.5 -167.5t-21.5 -148.5t-19 -92h-124q6 28 13.5 91.5t13 146.5t5.5 170h142z" />
    <glyph glyph-name="dcroat" unicode="&#x111;" horiz-adv-x="1305" 
d="M573 -22q-132 0 -243 63.5t-178 187.5t-67 305q0 176 68.5 298t180 185t239.5 63q97 0 184 -38t151 -106v317h-370v150h370v160h264v-160h111v-150h-111v-1253h-264v127q-63 -69 -149 -109t-186 -40zM634 210q73 0 135 35t100.5 96.5t38.5 141.5v109q0 78 -39.5 137.5
t-102 93t-132.5 33.5q-115 0 -196 -77.5t-81 -244.5q0 -166 81 -245t196 -79z" />
    <glyph glyph-name="uni1E0D" unicode="&#x1e0d;" horiz-adv-x="1298" 
d="M573 -22q-132 0 -243 63.5t-178 187.5t-67 305q0 176 68.5 298t180 185t239.5 63q97 0 184 -38t151 -106v627h264v-1563h-264v127q-63 -69 -149 -109t-186 -40zM634 210q73 0 135 35t100.5 96.5t38.5 141.5v109q0 78 -39.5 137.5t-102 93t-132.5 33.5q-115 0 -196 -77.5
t-81 -244.5q0 -166 81 -245t196 -79zM730 -399q-64 0 -111 34t-47 95q0 62 47 96t111 34q62 0 109.5 -34t47.5 -96t-47.5 -95.5t-109.5 -33.5z" />
    <glyph glyph-name="uni1E0F" unicode="&#x1e0f;" horiz-adv-x="1298" 
d="M573 -22q-132 0 -243 63.5t-178 187.5t-67 305q0 176 68.5 298t180 185t239.5 63q97 0 184 -38t151 -106v627h264v-1563h-264v127q-63 -69 -149 -109t-186 -40zM634 210q73 0 135 35t100.5 96.5t38.5 141.5v109q0 78 -39.5 137.5t-102 93t-132.5 33.5q-115 0 -196 -77.5
t-81 -244.5q0 -166 81 -245t196 -79zM455 -300v111h545v-111h-545z" />
    <glyph glyph-name="uni01C6" unicode="&#x1c6;" horiz-adv-x="2307" 
d="M573 -22q-132 0 -243 63.5t-178 187.5t-67 305q0 176 68.5 298t180 185t239.5 63q97 0 184 -38t151 -106v627h264v-1563h-264v127q-63 -69 -149 -109t-186 -40zM634 210q73 0 135 35t100.5 96.5t38.5 141.5v109q0 78 -39.5 137.5t-102 93t-132.5 33.5q-115 0 -196 -77.5
t-81 -244.5q0 -166 81 -245t196 -79zM2242 214v-214h-879v203l575 645h-553v214h846v-203l-572 -645h583zM1490 1475h171l145 -171l146 171h173l-231 -262h-174z" />
    <glyph glyph-name="e" unicode="e" horiz-adv-x="1299" 
d="M1199 335q-9 -89 -73.5 -171t-183 -134.5t-287.5 -52.5q-171 0 -299 70t-199.5 194.5t-71.5 286.5q0 165 72.5 289t201 193.5t296.5 69.5q172 0 297.5 -70t193.5 -195t68 -289q0 -52 -4 -80h-859q20 -123 100 -191.5t213 -68.5q140 0 203.5 48.5t69.5 100.5h262zM658 874
q-120 0 -200 -63t-104 -178h588q-8 96 -78 168.5t-206 72.5z" />
    <glyph glyph-name="eacute" unicode="&#xe9;" horiz-adv-x="1299" 
d="M1199 335q-9 -89 -73.5 -171t-183 -134.5t-287.5 -52.5q-171 0 -299 70t-199.5 194.5t-71.5 286.5q0 165 72.5 289t201 193.5t296.5 69.5q172 0 297.5 -70t193.5 -195t68 -289q0 -52 -4 -80h-859q20 -123 100 -191.5t213 -68.5q140 0 203.5 48.5t69.5 100.5h262zM658 874
q-120 0 -200 -63t-104 -178h588q-8 96 -78 168.5t-206 72.5zM504 1213l238 262h211l-268 -262h-181z" />
    <glyph glyph-name="ebreve" unicode="&#x115;" horiz-adv-x="1299" 
d="M1199 335q-9 -89 -73.5 -171t-183 -134.5t-287.5 -52.5q-171 0 -299 70t-199.5 194.5t-71.5 286.5q0 165 72.5 289t201 193.5t296.5 69.5q172 0 297.5 -70t193.5 -195t68 -289q0 -52 -4 -80h-859q20 -123 100 -191.5t213 -68.5q140 0 203.5 48.5t69.5 100.5h262zM658 874
q-120 0 -200 -63t-104 -178h588q-8 96 -78 168.5t-206 72.5zM381 1495h156q0 -61 31.5 -101.5t85.5 -40.5q55 0 86 40.5t31 101.5h157q0 -116 -78.5 -180.5t-195.5 -64.5t-195 64.5t-78 180.5z" />
    <glyph glyph-name="ecaron" unicode="&#x11b;" horiz-adv-x="1299" 
d="M1199 335q-9 -89 -73.5 -171t-183 -134.5t-287.5 -52.5q-171 0 -299 70t-199.5 194.5t-71.5 286.5q0 165 72.5 289t201 193.5t296.5 69.5q172 0 297.5 -70t193.5 -195t68 -289q0 -52 -4 -80h-859q20 -123 100 -191.5t213 -68.5q140 0 203.5 48.5t69.5 100.5h262zM658 874
q-120 0 -200 -63t-104 -178h588q-8 96 -78 168.5t-206 72.5zM337 1475h171l145 -171l146 171h173l-231 -262h-174z" />
    <glyph glyph-name="uni0229" unicode="&#x229;" horiz-adv-x="1293" 
d="M762 -82q53 0 100.5 -35.5t47.5 -114.5q0 -64 -38 -105.5t-98 -61.5t-127 -20q-60 0 -118.5 15t-81.5 31l53 99q17 -11 61 -27.5t96 -16.5q57 0 96 23.5t39 67.5q0 36 -20.5 52.5t-50.5 16.5q-25 0 -50 -9t-37 -26l-105 29l62 144q-153 13 -266.5 85.5t-176.5 191.5
t-63 271q0 165 72.5 289t201 193.5t296.5 69.5q172 0 297.5 -70t193.5 -195t68 -289q0 -52 -4 -80h-859q20 -123 100 -191.5t213 -68.5q140 0 203.5 48.5t69.5 100.5h262q-8 -84 -66.5 -162t-164.5 -131.5t-257 -62.5l-35 -81q38 20 86 20zM658 874q-120 0 -200 -63
t-104 -178h588q-8 96 -78 168.5t-206 72.5z" />
    <glyph glyph-name="uni1E1D" unicode="&#x1e1d;" horiz-adv-x="1293" 
d="M762 -82q53 0 100.5 -35.5t47.5 -114.5q0 -64 -38 -105.5t-98 -61.5t-127 -20q-60 0 -118.5 15t-81.5 31l53 99q17 -11 61 -27.5t96 -16.5q57 0 96 23.5t39 67.5q0 36 -20.5 52.5t-50.5 16.5q-25 0 -50 -9t-37 -26l-105 29l62 144q-153 13 -266.5 85.5t-176.5 191.5
t-63 271q0 165 72.5 289t201 193.5t296.5 69.5q172 0 297.5 -70t193.5 -195t68 -289q0 -52 -4 -80h-859q20 -123 100 -191.5t213 -68.5q140 0 203.5 48.5t69.5 100.5h262q-8 -84 -66.5 -162t-164.5 -131.5t-257 -62.5l-35 -81q38 20 86 20zM658 874q-120 0 -200 -63
t-104 -178h588q-8 96 -78 168.5t-206 72.5zM381 1495h156q0 -61 31.5 -101.5t85.5 -40.5q55 0 86 40.5t31 101.5h157q0 -116 -78.5 -180.5t-195.5 -64.5t-195 64.5t-78 180.5z" />
    <glyph glyph-name="ecircumflex" unicode="&#xea;" horiz-adv-x="1299" 
d="M1199 335q-9 -89 -73.5 -171t-183 -134.5t-287.5 -52.5q-171 0 -299 70t-199.5 194.5t-71.5 286.5q0 165 72.5 289t201 193.5t296.5 69.5q172 0 297.5 -70t193.5 -195t68 -289q0 -52 -4 -80h-859q20 -123 100 -191.5t213 -68.5q140 0 203.5 48.5t69.5 100.5h262zM658 874
q-120 0 -200 -63t-104 -178h588q-8 96 -78 168.5t-206 72.5zM337 1213l230 262h174l231 -262h-173l-146 171l-145 -171h-171z" />
    <glyph glyph-name="uni1EBF" unicode="&#x1ebf;" horiz-adv-x="1299" 
d="M1199 335q-9 -89 -73.5 -171t-183 -134.5t-287.5 -52.5q-171 0 -299 70t-199.5 194.5t-71.5 286.5q0 165 72.5 289t201 193.5t296.5 69.5q172 0 297.5 -70t193.5 -195t68 -289q0 -52 -4 -80h-859q20 -123 100 -191.5t213 -68.5q140 0 203.5 48.5t69.5 100.5h262zM658 874
q-120 0 -200 -63t-104 -178h588q-8 96 -78 168.5t-206 72.5zM809 1433l192 263h179l-214 -263h-157zM336 1213l230 262h174l231 -262h-173l-146 171l-145 -171h-171z" />
    <glyph glyph-name="uni1EC7" unicode="&#x1ec7;" horiz-adv-x="1299" 
d="M1199 335q-9 -89 -73.5 -171t-183 -134.5t-287.5 -52.5q-171 0 -299 70t-199.5 194.5t-71.5 286.5q0 165 72.5 289t201 193.5t296.5 69.5q172 0 297.5 -70t193.5 -195t68 -289q0 -52 -4 -80h-859q20 -123 100 -191.5t213 -68.5q140 0 203.5 48.5t69.5 100.5h262zM658 874
q-120 0 -200 -63t-104 -178h588q-8 96 -78 168.5t-206 72.5zM663 -387q-64 0 -111 34t-47 95q0 62 47 96t111 34q62 0 109.5 -34t47.5 -96t-47.5 -95.5t-109.5 -33.5zM337 1213l230 262h174l231 -262h-173l-146 171l-145 -171h-171z" />
    <glyph glyph-name="uni1EC1" unicode="&#x1ec1;" horiz-adv-x="1299" 
d="M1199 335q-9 -89 -73.5 -171t-183 -134.5t-287.5 -52.5q-171 0 -299 70t-199.5 194.5t-71.5 286.5q0 165 72.5 289t201 193.5t296.5 69.5q172 0 297.5 -70t193.5 -195t68 -289q0 -52 -4 -80h-859q20 -123 100 -191.5t213 -68.5q140 0 203.5 48.5t69.5 100.5h262zM658 874
q-120 0 -200 -63t-104 -178h588q-8 96 -78 168.5t-206 72.5zM1047 1433h-158l-213 263h179zM338 1213l230 262h174l231 -262h-173l-146 171l-145 -171h-171z" />
    <glyph glyph-name="uni1EC3" unicode="&#x1ec3;" horiz-adv-x="1299" 
d="M1199 335q-9 -89 -73.5 -171t-183 -134.5t-287.5 -52.5q-171 0 -299 70t-199.5 194.5t-71.5 286.5q0 165 72.5 289t201 193.5t296.5 69.5q172 0 297.5 -70t193.5 -195t68 -289q0 -52 -4 -80h-859q20 -123 100 -191.5t213 -68.5q140 0 203.5 48.5t69.5 100.5h262zM658 874
q-120 0 -200 -63t-104 -178h588q-8 96 -78 168.5t-206 72.5zM880 1431l-26 65q30 2 66 7t61.5 16.5t25.5 31.5q0 33 -65.5 41.5t-180.5 8.5v77q101 0 183 -7.5t131 -32.5t49 -78q0 -68 -72 -98.5t-172 -30.5zM337 1213l230 262h174l231 -262h-173l-146 171l-145 -171h-171z
" />
    <glyph glyph-name="uni1EC5" unicode="&#x1ec5;" horiz-adv-x="1299" 
d="M1199 335q-9 -89 -73.5 -171t-183 -134.5t-287.5 -52.5q-171 0 -299 70t-199.5 194.5t-71.5 286.5q0 165 72.5 289t201 193.5t296.5 69.5q172 0 297.5 -70t193.5 -195t68 -289q0 -52 -4 -80h-859q20 -123 100 -191.5t213 -68.5q140 0 203.5 48.5t69.5 100.5h262zM658 874
q-120 0 -200 -63t-104 -178h588q-8 96 -78 168.5t-206 72.5zM786 1546q-53 0 -87 18.5t-56 39.5q-21 19 -42.5 33.5t-50.5 14.5q-37 0 -54 -24.5t-19 -58.5h-138q1 45 23 93t65 81t108 33q48 0 82.5 -20t57.5 -39t46.5 -34t50.5 -15q34 0 48 23.5t15 58.5h138
q-1 -44 -20.5 -91.5t-60.5 -80t-106 -32.5zM337 1213l230 262h174l231 -262h-173l-146 171l-145 -171h-171z" />
    <glyph glyph-name="uni0205" unicode="&#x205;" horiz-adv-x="1299" 
d="M1199 335q-9 -89 -73.5 -171t-183 -134.5t-287.5 -52.5q-171 0 -299 70t-199.5 194.5t-71.5 286.5q0 165 72.5 289t201 193.5t296.5 69.5q172 0 297.5 -70t193.5 -195t68 -289q0 -52 -4 -80h-859q20 -123 100 -191.5t213 -68.5q140 0 203.5 48.5t69.5 100.5h262zM658 874
q-120 0 -200 -63t-104 -178h588q-8 96 -78 168.5t-206 72.5zM901 1213h-145l-180 262h172zM578 1213h-146l-198 262h171z" />
    <glyph glyph-name="edieresis" unicode="&#xeb;" horiz-adv-x="1299" 
d="M1199 335q-9 -89 -73.5 -171t-183 -134.5t-287.5 -52.5q-171 0 -299 70t-199.5 194.5t-71.5 286.5q0 165 72.5 289t201 193.5t296.5 69.5q172 0 297.5 -70t193.5 -195t68 -289q0 -52 -4 -80h-859q20 -123 100 -191.5t213 -68.5q140 0 203.5 48.5t69.5 100.5h262zM658 874
q-120 0 -200 -63t-104 -178h588q-8 96 -78 168.5t-206 72.5zM427 1254q-58 0 -101.5 31.5t-43.5 88.5t43.5 88t101.5 31t102 -31t44 -88t-44 -88.5t-102 -31.5zM879 1254q-59 0 -102 31.5t-43 88.5t43 88t102 31q58 0 101.5 -31t43.5 -88t-43.5 -88.5t-101.5 -31.5z" />
    <glyph glyph-name="edotaccent" unicode="&#x117;" horiz-adv-x="1299" 
d="M1199 335q-9 -89 -73.5 -171t-183 -134.5t-287.5 -52.5q-171 0 -299 70t-199.5 194.5t-71.5 286.5q0 165 72.5 289t201 193.5t296.5 69.5q172 0 297.5 -70t193.5 -195t68 -289q0 -52 -4 -80h-859q20 -123 100 -191.5t213 -68.5q140 0 203.5 48.5t69.5 100.5h262zM658 874
q-120 0 -200 -63t-104 -178h588q-8 96 -78 168.5t-206 72.5zM654 1258q-63 0 -110.5 34t-47.5 95q0 62 47.5 96t110.5 34q64 0 111 -34t47 -96t-47 -95.5t-111 -33.5z" />
    <glyph glyph-name="uni1EB9" unicode="&#x1eb9;" horiz-adv-x="1299" 
d="M1199 335q-9 -89 -73.5 -171t-183 -134.5t-287.5 -52.5q-171 0 -299 70t-199.5 194.5t-71.5 286.5q0 165 72.5 289t201 193.5t296.5 69.5q172 0 297.5 -70t193.5 -195t68 -289q0 -52 -4 -80h-859q20 -123 100 -191.5t213 -68.5q140 0 203.5 48.5t69.5 100.5h262zM658 874
q-120 0 -200 -63t-104 -178h588q-8 96 -78 168.5t-206 72.5zM663 -387q-64 0 -111 34t-47 95q0 62 47 96t111 34q62 0 109.5 -34t47.5 -96t-47.5 -95.5t-109.5 -33.5z" />
    <glyph glyph-name="egrave" unicode="&#xe8;" horiz-adv-x="1299" 
d="M1199 335q-9 -89 -73.5 -171t-183 -134.5t-287.5 -52.5q-171 0 -299 70t-199.5 194.5t-71.5 286.5q0 165 72.5 289t201 193.5t296.5 69.5q172 0 297.5 -70t193.5 -195t68 -289q0 -52 -4 -80h-859q20 -123 100 -191.5t213 -68.5q140 0 203.5 48.5t69.5 100.5h262zM658 874
q-120 0 -200 -63t-104 -178h588q-8 96 -78 168.5t-206 72.5zM798 1209h-182l-267 262h210z" />
    <glyph glyph-name="uni1EBB" unicode="&#x1ebb;" horiz-adv-x="1299" 
d="M1199 335q-9 -89 -73.5 -171t-183 -134.5t-287.5 -52.5q-171 0 -299 70t-199.5 194.5t-71.5 286.5q0 165 72.5 289t201 193.5t296.5 69.5q172 0 297.5 -70t193.5 -195t68 -289q0 -52 -4 -80h-859q20 -123 100 -191.5t213 -68.5q140 0 203.5 48.5t69.5 100.5h262zM658 874
q-120 0 -200 -63t-104 -178h588q-8 96 -78 168.5t-206 72.5zM450 1506q110 0 200.5 -8.5t144 -36.5t53.5 -85q0 -75 -79 -109t-190 -34l-28 73q33 1 72 6.5t67 18t28 35.5q0 35 -71.5 44.5t-196.5 9.5v86z" />
    <glyph glyph-name="uni0207" unicode="&#x207;" horiz-adv-x="1299" 
d="M1199 335q-9 -89 -73.5 -171t-183 -134.5t-287.5 -52.5q-171 0 -299 70t-199.5 194.5t-71.5 286.5q0 165 72.5 289t201 193.5t296.5 69.5q172 0 297.5 -70t193.5 -195t68 -289q0 -52 -4 -80h-859q20 -123 100 -191.5t213 -68.5q140 0 203.5 48.5t69.5 100.5h262zM658 874
q-120 0 -200 -63t-104 -178h588q-8 96 -78 168.5t-206 72.5zM380 1256q0 116 78 174t195 58q118 0 196 -58t78 -174h-156q0 61 -31.5 94.5t-86.5 33.5q-54 0 -85.5 -33.5t-31.5 -94.5h-156z" />
    <glyph glyph-name="emacron" unicode="&#x113;" horiz-adv-x="1299" 
d="M1199 335q-9 -89 -73.5 -171t-183 -134.5t-287.5 -52.5q-171 0 -299 70t-199.5 194.5t-71.5 286.5q0 165 72.5 289t201 193.5t296.5 69.5q172 0 297.5 -70t193.5 -195t68 -289q0 -52 -4 -80h-859q20 -123 100 -191.5t213 -68.5q140 0 203.5 48.5t69.5 100.5h262zM658 874
q-120 0 -200 -63t-104 -178h588q-8 96 -78 168.5t-206 72.5zM360 1297v112h588v-112h-588z" />
    <glyph glyph-name="uni1E17" unicode="&#x1e17;" horiz-adv-x="1299" 
d="M1199 335q-9 -89 -73.5 -171t-183 -134.5t-287.5 -52.5q-171 0 -299 70t-199.5 194.5t-71.5 286.5q0 165 72.5 289t201 193.5t296.5 69.5q172 0 297.5 -70t193.5 -195t68 -289q0 -52 -4 -80h-859q20 -123 100 -191.5t213 -68.5q140 0 203.5 48.5t69.5 100.5h262zM658 874
q-120 0 -200 -63t-104 -178h588q-8 96 -78 168.5t-206 72.5zM360 1297v112h588v-112h-588zM504 1560l238 262h211l-268 -262h-181z" />
    <glyph glyph-name="uni1E15" unicode="&#x1e15;" horiz-adv-x="1299" 
d="M1199 335q-9 -89 -73.5 -171t-183 -134.5t-287.5 -52.5q-171 0 -299 70t-199.5 194.5t-71.5 286.5q0 165 72.5 289t201 193.5t296.5 69.5q172 0 297.5 -70t193.5 -195t68 -289q0 -52 -4 -80h-859q20 -123 100 -191.5t213 -68.5q140 0 203.5 48.5t69.5 100.5h262zM658 874
q-120 0 -200 -63t-104 -178h588q-8 96 -78 168.5t-206 72.5zM360 1297v112h588v-112h-588zM798 1556h-182l-267 262h210z" />
    <glyph glyph-name="eogonek" unicode="&#x119;" horiz-adv-x="1299" 
d="M906 -288v-128q-20 -3 -44 -5t-49 -2q-93 0 -161 38.5t-68 126.5q0 62 44 126.5t94 110.5q-33 -2 -67 -2q-171 0 -299 70t-199.5 194.5t-71.5 286.5q0 165 72.5 289t201 193.5t296.5 69.5q172 0 297.5 -70t193.5 -195t68 -289q0 -52 -4 -80h-859q20 -123 100 -191.5
t213 -68.5q140 0 203.5 48.5t69.5 100.5h262q-9 -97 -85.5 -186t-216.5 -135q-32 -29 -71 -72t-67.5 -87.5t-28.5 -77.5q0 -40 28.5 -56t69.5 -16q19 0 40 2.5t38 4.5zM658 874q-120 0 -200 -63t-104 -178h588q-8 96 -78 168.5t-206 72.5z" />
    <glyph glyph-name="uni1EBD" unicode="&#x1ebd;" horiz-adv-x="1299" 
d="M1199 335q-9 -89 -73.5 -171t-183 -134.5t-287.5 -52.5q-171 0 -299 70t-199.5 194.5t-71.5 286.5q0 165 72.5 289t201 193.5t296.5 69.5q172 0 297.5 -70t193.5 -195t68 -289q0 -52 -4 -80h-859q20 -123 100 -191.5t213 -68.5q140 0 203.5 48.5t69.5 100.5h262zM658 874
q-120 0 -200 -63t-104 -178h588q-8 96 -78 168.5t-206 72.5zM971 1454q-1 -44 -20.5 -91.5t-60.5 -80t-106 -32.5q-51 0 -86 20t-58 39q-22 19 -44.5 33t-51.5 14q-37 0 -52.5 -24.5t-16.5 -58.5h-139q2 45 23.5 93t64.5 81t109 33q48 0 82.5 -20t56.5 -39q23 -19 47 -34
t50 -15q35 0 48.5 23.5t15.5 58.5h138z" />
    <glyph glyph-name="uni0259" unicode="&#x259;" horiz-adv-x="1299" 
d="M644 -23q-172 0 -297.5 70t-193.5 195t-68 289q0 52 3 80h865q-18 126 -96.5 193t-223.5 67q-135 0 -199 -47.5t-72 -101.5h-262q9 89 73.5 171t183 134.5t287.5 52.5q171 0 299 -70t199.5 -194.5t71.5 -286.5q0 -165 -72.5 -289t-201 -193.5t-296.5 -69.5zM641 183
q124 0 204.5 62t104.5 179h-593q8 -96 77 -168.5t207 -72.5z" />
    <glyph glyph-name="uni0292" unicode="&#x292;" horiz-adv-x="1213" 
d="M605 -435q-186 0 -293 65.5t-152 176t-45 245.5v4h264v-4q0 -159 61 -218t168 -59q95 0 152.5 55.5t57.5 188.5q0 129 -69 176t-237 47h-100l363 610h-616v210h893v-194l-285 -456q159 0 237.5 -104.5t78.5 -270.5q0 -138 -51 -244.5t-156.5 -167t-270.5 -60.5z" />
    <glyph glyph-name="uni01EF" unicode="&#x1ef;" horiz-adv-x="1213" 
d="M605 -435q-186 0 -293 65.5t-152 176t-45 245.5v4h264v-4q0 -159 61 -218t168 -59q95 0 152.5 55.5t57.5 188.5q0 129 -69 176t-237 47h-100l363 610h-616v210h893v-194l-285 -456q159 0 237.5 -104.5t78.5 -270.5q0 -138 -51 -244.5t-156.5 -167t-270.5 -60.5zM290 1475
h171l145 -171l146 171h173l-231 -262h-174z" />
    <glyph glyph-name="f" unicode="f" horiz-adv-x="857" 
d="M261 0v852h-225v210h225v95q0 117 38 197.5t101 130t141 71.5t157 22q60 0 91.5 -7.5t42.5 -11.5v-212q-12 4 -41.5 9.5t-63.5 5.5q-82 0 -126 -30t-60.5 -81.5t-16.5 -114.5v-74h294v-210h-294v-852h-263z" />
    <glyph glyph-name="g" unicode="g" horiz-adv-x="1247" 
d="M846 105q141 -13 228.5 -67.5t87.5 -182.5q0 -145 -145 -228.5t-419 -83.5q-267 0 -409.5 77t-142.5 207q0 37 9 67t22 50l241 -35q-6 -8 -12 -25.5t-6 -42.5q0 -62 83.5 -89.5t222.5 -27.5q152 0 231 31t79 84q0 52 -47 66.5t-112 20.5l-403 37q-108 11 -177.5 64
t-69.5 140q0 64 40.5 116.5t80.5 77.5q-133 112 -133 295q0 125 64 220.5t175 149.5t252 54q121 0 217.5 -43t146.5 -108l15 133h236l-96 -412q-27 -116 -86.5 -208t-160.5 -145t-252 -53q-131 0 -236 38q-14 -12 -24 -28t-10 -34q0 -31 28 -51.5t108 -28.5zM605 447
q115 0 183 55t68 158q0 100 -68.5 157t-181.5 57q-110 0 -181.5 -58t-71.5 -158q0 -101 68.5 -156t183.5 -55z" />
    <glyph glyph-name="g.ss01" horiz-adv-x="1331" 
d="M609 -22q-132 0 -249.5 61t-191 185t-73.5 313q0 181 74.5 302t192.5 181t247 60q98 0 185.5 -36t150.5 -106v124h264v-1044q0 -132 -47.5 -222.5t-127.5 -145.5t-177.5 -79t-198.5 -24q-98 0 -192.5 19t-170.5 62t-121.5 112t-45.5 168v11h263v-11q0 -81 80.5 -123
t191.5 -42q122 0 202 61.5t80 213.5v100q-63 -69 -150.5 -104.5t-185.5 -35.5zM672 206q71 0 133.5 31.5t101 93t38.5 151.5v104q0 90 -39 150.5t-101.5 90.5t-132.5 30q-77 0 -145.5 -31.5t-111 -101.5t-42.5 -187t42.5 -190t111 -107t145.5 -34z" />
    <glyph glyph-name="gbreve" unicode="&#x11f;" horiz-adv-x="1247" 
d="M846 105q141 -13 228.5 -67.5t87.5 -182.5q0 -145 -145 -228.5t-419 -83.5q-267 0 -409.5 77t-142.5 207q0 37 9 67t22 50l241 -35q-6 -8 -12 -25.5t-6 -42.5q0 -62 83.5 -89.5t222.5 -27.5q152 0 231 31t79 84q0 52 -47 66.5t-112 20.5l-403 37q-108 11 -177.5 64
t-69.5 140q0 64 40.5 116.5t80.5 77.5q-133 112 -133 295q0 125 64 220.5t175 149.5t252 54q121 0 217.5 -43t146.5 -108l15 133h236l-96 -412q-27 -116 -86.5 -208t-160.5 -145t-252 -53q-131 0 -236 38q-14 -12 -24 -28t-10 -34q0 -31 28 -51.5t108 -28.5zM605 447
q115 0 183 55t68 158q0 100 -68.5 157t-181.5 57q-110 0 -181.5 -58t-71.5 -158q0 -101 68.5 -156t183.5 -55zM319 1495h156q0 -61 31.5 -101.5t85.5 -40.5q55 0 86 40.5t31 101.5h157q0 -116 -78.5 -180.5t-195.5 -64.5t-195 64.5t-78 180.5z" />
    <glyph glyph-name="gbreve.ss01" horiz-adv-x="1331" 
d="M609 -22q-132 0 -249.5 61t-191 185t-73.5 313q0 181 74.5 302t192.5 181t247 60q98 0 185.5 -36t150.5 -106v124h264v-1044q0 -132 -47.5 -222.5t-127.5 -145.5t-177.5 -79t-198.5 -24q-98 0 -192.5 19t-170.5 62t-121.5 112t-45.5 168v11h263v-11q0 -81 80.5 -123
t191.5 -42q122 0 202 61.5t80 213.5v100q-63 -69 -150.5 -104.5t-185.5 -35.5zM672 206q71 0 133.5 31.5t101 93t38.5 151.5v104q0 90 -39 150.5t-101.5 90.5t-132.5 30q-77 0 -145.5 -31.5t-111 -101.5t-42.5 -187t42.5 -190t111 -107t145.5 -34zM390 1495h156
q0 -61 31.5 -101.5t85.5 -40.5q55 0 86 40.5t31 101.5h157q0 -116 -78.5 -180.5t-195.5 -64.5t-195 64.5t-78 180.5z" />
    <glyph glyph-name="gcaron" unicode="&#x1e7;" horiz-adv-x="1247" 
d="M846 105q141 -13 228.5 -67.5t87.5 -182.5q0 -145 -145 -228.5t-419 -83.5q-267 0 -409.5 77t-142.5 207q0 37 9 67t22 50l241 -35q-6 -8 -12 -25.5t-6 -42.5q0 -62 83.5 -89.5t222.5 -27.5q152 0 231 31t79 84q0 52 -47 66.5t-112 20.5l-403 37q-108 11 -177.5 64
t-69.5 140q0 64 40.5 116.5t80.5 77.5q-133 112 -133 295q0 125 64 220.5t175 149.5t252 54q121 0 217.5 -43t146.5 -108l15 133h236l-96 -412q-27 -116 -86.5 -208t-160.5 -145t-252 -53q-131 0 -236 38q-14 -12 -24 -28t-10 -34q0 -31 28 -51.5t108 -28.5zM605 447
q115 0 183 55t68 158q0 100 -68.5 157t-181.5 57q-110 0 -181.5 -58t-71.5 -158q0 -101 68.5 -156t183.5 -55zM275 1475h171l145 -171l146 171h173l-231 -262h-174z" />
    <glyph glyph-name="gcaron.ss01" horiz-adv-x="1331" 
d="M609 -22q-132 0 -249.5 61t-191 185t-73.5 313q0 181 74.5 302t192.5 181t247 60q98 0 185.5 -36t150.5 -106v124h264v-1044q0 -132 -47.5 -222.5t-127.5 -145.5t-177.5 -79t-198.5 -24q-98 0 -192.5 19t-170.5 62t-121.5 112t-45.5 168v11h263v-11q0 -81 80.5 -123
t191.5 -42q122 0 202 61.5t80 213.5v100q-63 -69 -150.5 -104.5t-185.5 -35.5zM672 206q71 0 133.5 31.5t101 93t38.5 151.5v104q0 90 -39 150.5t-101.5 90.5t-132.5 30q-77 0 -145.5 -31.5t-111 -101.5t-42.5 -187t42.5 -190t111 -107t145.5 -34zM346 1475h171l145 -171
l146 171h173l-231 -262h-174z" />
    <glyph glyph-name="gcircumflex" unicode="&#x11d;" horiz-adv-x="1247" 
d="M846 105q141 -13 228.5 -67.5t87.5 -182.5q0 -145 -145 -228.5t-419 -83.5q-267 0 -409.5 77t-142.5 207q0 37 9 67t22 50l241 -35q-6 -8 -12 -25.5t-6 -42.5q0 -62 83.5 -89.5t222.5 -27.5q152 0 231 31t79 84q0 52 -47 66.5t-112 20.5l-403 37q-108 11 -177.5 64
t-69.5 140q0 64 40.5 116.5t80.5 77.5q-133 112 -133 295q0 125 64 220.5t175 149.5t252 54q121 0 217.5 -43t146.5 -108l15 133h236l-96 -412q-27 -116 -86.5 -208t-160.5 -145t-252 -53q-131 0 -236 38q-14 -12 -24 -28t-10 -34q0 -31 28 -51.5t108 -28.5zM605 447
q115 0 183 55t68 158q0 100 -68.5 157t-181.5 57q-110 0 -181.5 -58t-71.5 -158q0 -101 68.5 -156t183.5 -55zM275 1213l230 262h174l231 -262h-173l-146 171l-145 -171h-171z" />
    <glyph glyph-name="gcircumflex.ss01" horiz-adv-x="1331" 
d="M609 -22q-132 0 -249.5 61t-191 185t-73.5 313q0 181 74.5 302t192.5 181t247 60q98 0 185.5 -36t150.5 -106v124h264v-1044q0 -132 -47.5 -222.5t-127.5 -145.5t-177.5 -79t-198.5 -24q-98 0 -192.5 19t-170.5 62t-121.5 112t-45.5 168v11h263v-11q0 -81 80.5 -123
t191.5 -42q122 0 202 61.5t80 213.5v100q-63 -69 -150.5 -104.5t-185.5 -35.5zM672 206q71 0 133.5 31.5t101 93t38.5 151.5v104q0 90 -39 150.5t-101.5 90.5t-132.5 30q-77 0 -145.5 -31.5t-111 -101.5t-42.5 -187t42.5 -190t111 -107t145.5 -34zM346 1213l230 262h174
l231 -262h-173l-146 171l-145 -171h-171z" />
    <glyph glyph-name="uni0123" unicode="&#x123;" horiz-adv-x="1247" 
d="M846 105q141 -13 228.5 -67.5t87.5 -182.5q0 -145 -145 -228.5t-419 -83.5q-267 0 -409.5 77t-142.5 207q0 37 9 67t22 50l241 -35q-6 -8 -12 -25.5t-6 -42.5q0 -62 83.5 -89.5t222.5 -27.5q152 0 231 31t79 84q0 52 -47 66.5t-112 20.5l-403 37q-108 11 -177.5 64
t-69.5 140q0 64 40.5 116.5t80.5 77.5q-133 112 -133 295q0 125 64 220.5t175 149.5t252 54q121 0 217.5 -43t146.5 -108l15 133h236l-96 -412q-27 -116 -86.5 -208t-160.5 -145t-252 -53q-131 0 -236 38q-14 -12 -24 -28t-10 -34q0 -31 28 -51.5t108 -28.5zM605 447
q115 0 183 55t68 158q0 100 -68.5 157t-181.5 57q-110 0 -181.5 -58t-71.5 -158q0 -101 68.5 -156t183.5 -55zM608.344 1372.38q44.4062 0 71.1406 -25.375t26.7344 -69.7812q0 -43.5 -29.4531 -72.5t-83.8281 -29q-56.1875 0 -85.6406 37.6094t-29.4531 95.6094
q0 55.2812 26.7344 98.3281t67.9688 72.9531t82.9219 46.2188l20.8438 -44.4062q-42.5938 -16.3125 -81.5625 -53.0156t-38.9688 -74.7656q2.71875 4.53125 16.7656 11.3281t35.7969 6.79688z" />
    <glyph glyph-name="uni0123.ss01" horiz-adv-x="1331" 
d="M609 -22q-132 0 -249.5 61t-191 185t-73.5 313q0 181 74.5 302t192.5 181t247 60q98 0 185.5 -36t150.5 -106v124h264v-1044q0 -132 -47.5 -222.5t-127.5 -145.5t-177.5 -79t-198.5 -24q-98 0 -192.5 19t-170.5 62t-121.5 112t-45.5 168v11h263v-11q0 -81 80.5 -123
t191.5 -42q122 0 202 61.5t80 213.5v100q-63 -69 -150.5 -104.5t-185.5 -35.5zM672 206q71 0 133.5 31.5t101 93t38.5 151.5v104q0 90 -39 150.5t-101.5 90.5t-132.5 30q-77 0 -145.5 -31.5t-111 -101.5t-42.5 -187t42.5 -190t111 -107t145.5 -34zM680 1404q49 0 78.5 -28
t29.5 -77q0 -48 -32.5 -80t-92.5 -32q-62 0 -94.5 41.5t-32.5 105.5q0 61 29.5 108.5t75 80.5t91.5 51l23 -49q-47 -18 -90 -58.5t-43 -82.5q3 5 18.5 12.5t39.5 7.5z" />
    <glyph glyph-name="gdotaccent" unicode="&#x121;" horiz-adv-x="1247" 
d="M846 105q141 -13 228.5 -67.5t87.5 -182.5q0 -145 -145 -228.5t-419 -83.5q-267 0 -409.5 77t-142.5 207q0 37 9 67t22 50l241 -35q-6 -8 -12 -25.5t-6 -42.5q0 -62 83.5 -89.5t222.5 -27.5q152 0 231 31t79 84q0 52 -47 66.5t-112 20.5l-403 37q-108 11 -177.5 64
t-69.5 140q0 64 40.5 116.5t80.5 77.5q-133 112 -133 295q0 125 64 220.5t175 149.5t252 54q121 0 217.5 -43t146.5 -108l15 133h236l-96 -412q-27 -116 -86.5 -208t-160.5 -145t-252 -53q-131 0 -236 38q-14 -12 -24 -28t-10 -34q0 -31 28 -51.5t108 -28.5zM605 447
q115 0 183 55t68 158q0 100 -68.5 157t-181.5 57q-110 0 -181.5 -58t-71.5 -158q0 -101 68.5 -156t183.5 -55zM592 1258q-63 0 -110.5 34t-47.5 95q0 62 47.5 96t110.5 34q64 0 111 -34t47 -96t-47 -95.5t-111 -33.5z" />
    <glyph glyph-name="gdotaccent.ss01" horiz-adv-x="1331" 
d="M609 -22q-132 0 -249.5 61t-191 185t-73.5 313q0 181 74.5 302t192.5 181t247 60q98 0 185.5 -36t150.5 -106v124h264v-1044q0 -132 -47.5 -222.5t-127.5 -145.5t-177.5 -79t-198.5 -24q-98 0 -192.5 19t-170.5 62t-121.5 112t-45.5 168v11h263v-11q0 -81 80.5 -123
t191.5 -42q122 0 202 61.5t80 213.5v100q-63 -69 -150.5 -104.5t-185.5 -35.5zM672 206q71 0 133.5 31.5t101 93t38.5 151.5v104q0 90 -39 150.5t-101.5 90.5t-132.5 30q-77 0 -145.5 -31.5t-111 -101.5t-42.5 -187t42.5 -190t111 -107t145.5 -34zM663 1258q-63 0 -110.5 34
t-47.5 95q0 62 47.5 96t110.5 34q64 0 111 -34t47 -96t-47 -95.5t-111 -33.5z" />
    <glyph glyph-name="uni1E21" unicode="&#x1e21;" horiz-adv-x="1247" 
d="M846 105q141 -13 228.5 -67.5t87.5 -182.5q0 -145 -145 -228.5t-419 -83.5q-267 0 -409.5 77t-142.5 207q0 37 9 67t22 50l241 -35q-6 -8 -12 -25.5t-6 -42.5q0 -62 83.5 -89.5t222.5 -27.5q152 0 231 31t79 84q0 52 -47 66.5t-112 20.5l-403 37q-108 11 -177.5 64
t-69.5 140q0 64 40.5 116.5t80.5 77.5q-133 112 -133 295q0 125 64 220.5t175 149.5t252 54q121 0 217.5 -43t146.5 -108l15 133h236l-96 -412q-27 -116 -86.5 -208t-160.5 -145t-252 -53q-131 0 -236 38q-14 -12 -24 -28t-10 -34q0 -31 28 -51.5t108 -28.5zM605 447
q115 0 183 55t68 158q0 100 -68.5 157t-181.5 57q-110 0 -181.5 -58t-71.5 -158q0 -101 68.5 -156t183.5 -55zM298 1297v112h588v-112h-588z" />
    <glyph glyph-name="uni1E21.ss01" horiz-adv-x="1331" 
d="M609 -22q-132 0 -249.5 61t-191 185t-73.5 313q0 181 74.5 302t192.5 181t247 60q98 0 185.5 -36t150.5 -106v124h264v-1044q0 -132 -47.5 -222.5t-127.5 -145.5t-177.5 -79t-198.5 -24q-98 0 -192.5 19t-170.5 62t-121.5 112t-45.5 168v11h263v-11q0 -81 80.5 -123
t191.5 -42q122 0 202 61.5t80 213.5v100q-63 -69 -150.5 -104.5t-185.5 -35.5zM672 206q71 0 133.5 31.5t101 93t38.5 151.5v104q0 90 -39 150.5t-101.5 90.5t-132.5 30q-77 0 -145.5 -31.5t-111 -101.5t-42.5 -187t42.5 -190t111 -107t145.5 -34zM369 1297v112h588v-112
h-588z" />
    <glyph glyph-name="uni01E5" unicode="&#x1e5;" horiz-adv-x="1331" 
d="M609 -22q-132 0 -249.5 61t-191 185t-73.5 313q0 181 74.5 302t192.5 181t247 60q98 0 185.5 -36t150.5 -106v124h264v-1044q0 -132 -47.5 -222.5t-127.5 -145.5t-177.5 -79t-198.5 -24q-98 0 -192.5 19t-170.5 62t-121.5 112t-45.5 168v11h263v-11q0 -81 80.5 -123
t191.5 -42q122 0 202 61.5t80 213.5v100q-63 -69 -150.5 -104.5t-185.5 -35.5zM672 206q71 0 133.5 31.5t101 93t38.5 151.5v104q0 90 -39 150.5t-101.5 90.5t-132.5 30q-77 0 -145.5 -31.5t-111 -101.5t-42.5 -187t42.5 -190t111 -107t145.5 -34zM608 470v121h717v-121
h-717z" />
    <glyph glyph-name="h" unicode="h" horiz-adv-x="1269" 
d="M132 0v1563h263v-639q60 73 151 114.5t204 41.5q193 0 295 -114.5t102 -318.5v-647h-263v577q0 132 -51.5 202.5t-175.5 70.5q-125 0 -193.5 -71.5t-68.5 -185.5v-593h-263z" />
    <glyph glyph-name="hbar" unicode="&#x127;" horiz-adv-x="1281" 
d="M144 0v1253h-131v150h131v160h263v-160h332v-150h-332v-329q60 73 151 114.5t204 41.5q193 0 295 -114.5t102 -318.5v-647h-263v577q0 132 -51.5 202.5t-175.5 70.5q-125 0 -193.5 -71.5t-68.5 -185.5v-593h-263z" />
    <glyph glyph-name="uni1E2B" unicode="&#x1e2b;" horiz-adv-x="1269" 
d="M132 0v1563h263v-639q60 73 151 114.5t204 41.5q193 0 295 -114.5t102 -318.5v-647h-263v577q0 132 -51.5 202.5t-175.5 70.5q-125 0 -193.5 -71.5t-68.5 -185.5v-593h-263zM352 -121h156q0 -61 31.5 -95t86.5 -34q54 0 85.5 34t31.5 95h156q0 -116 -78 -174t-195 -58
q-118 0 -196 58t-78 174z" />
    <glyph glyph-name="hcircumflex" unicode="&#x125;" horiz-adv-x="1269" 
d="M132 0v1563h263v-639q60 73 151 114.5t204 41.5q193 0 295 -114.5t102 -318.5v-647h-263v577q0 132 -51.5 202.5t-175.5 70.5q-125 0 -193.5 -71.5t-68.5 -185.5v-593h-263zM-50 1706l230 262h174l231 -262h-173l-146 171l-145 -171h-171z" />
    <glyph glyph-name="uni1E25" unicode="&#x1e25;" horiz-adv-x="1269" 
d="M132 0v1563h263v-639q60 73 151 114.5t204 41.5q193 0 295 -114.5t102 -318.5v-647h-263v577q0 132 -51.5 202.5t-175.5 70.5q-125 0 -193.5 -71.5t-68.5 -185.5v-593h-263zM629 -387q-64 0 -111 34t-47 95q0 62 47 96t111 34q62 0 109.5 -34t47.5 -96t-47.5 -95.5
t-109.5 -33.5z" />
    <glyph glyph-name="i" unicode="i" horiz-adv-x="515" 
d="M258 1258q-64 0 -111.5 34.5t-47.5 96.5q0 61 47.5 95t111.5 34q63 0 110 -34t47 -95q0 -63 -47 -97t-110 -34zM127 0v1062h260v-1062h-260z" />
    <glyph glyph-name="dotlessi" unicode="&#x131;" horiz-adv-x="514" 
d="M127 0v1062h260v-1062h-260z" />
    <glyph glyph-name="iacute" unicode="&#xed;" horiz-adv-x="514" 
d="M127 0v1062h260v-1062h-260zM108 1213l238 262h211l-268 -262h-181z" />
    <glyph glyph-name="ibreve" unicode="&#x12d;" horiz-adv-x="514" 
d="M127 0v1062h260v-1062h-260zM-15 1495h156q0 -61 31.5 -101.5t85.5 -40.5q55 0 86 40.5t31 101.5h157q0 -116 -78.5 -180.5t-195.5 -64.5t-195 64.5t-78 180.5z" />
    <glyph glyph-name="uni01D0" unicode="&#x1d0;" horiz-adv-x="514" 
d="M127 0v1062h260v-1062h-260zM-59 1475h171l145 -171l146 171h173l-231 -262h-174z" />
    <glyph glyph-name="icircumflex" unicode="&#xee;" horiz-adv-x="514" 
d="M127 0v1062h260v-1062h-260zM-59 1213l230 262h174l231 -262h-173l-146 171l-145 -171h-171z" />
    <glyph glyph-name="uni0209" unicode="&#x209;" horiz-adv-x="514" 
d="M127 0v1062h260v-1062h-260zM505 1213h-145l-180 262h172zM182 1213h-146l-198 262h171z" />
    <glyph glyph-name="idieresis" unicode="&#xef;" horiz-adv-x="514" 
d="M127 0v1062h260v-1062h-260zM87 1254q-59 0 -102.5 31.5t-43.5 88.5t43.5 88t102.5 31q57 0 101 -31t44 -88t-44 -88.5t-101 -31.5zM427 1254q-59 0 -102 31.5t-43 88.5t43 88t102 31q58 0 101.5 -31t43.5 -88t-43.5 -88.5t-101.5 -31.5z" />
    <glyph glyph-name="uni1E2F" unicode="&#x1e2f;" horiz-adv-x="514" 
d="M127 0v1062h260v-1062h-260zM87 1254q-59 0 -102.5 31.5t-43.5 88.5t43.5 88t102.5 31q57 0 101 -31t44 -88t-44 -88.5t-101 -31.5zM427 1254q-59 0 -102 31.5t-43 88.5t43 88t102 31q58 0 101.5 -31t43.5 -88t-43.5 -88.5t-101.5 -31.5zM108 1651l238 262h211l-268 -262
h-181z" />
    <glyph glyph-name="i.loclTRK" horiz-adv-x="514" 
d="M127 0v1062h260v-1062h-260zM258 1258q-63 0 -110.5 34t-47.5 95q0 62 47.5 96t110.5 34q64 0 111 -34t47 -96t-47 -95.5t-111 -33.5z" />
    <glyph glyph-name="uni1ECB" unicode="&#x1ecb;" horiz-adv-x="515" 
d="M258 1258q-64 0 -111.5 34.5t-47.5 96.5q0 61 47.5 95t111.5 34q63 0 110 -34t47 -95q0 -63 -47 -97t-110 -34zM127 0v1062h260v-1062h-260zM258 -387q-64 0 -111 34t-47 95q0 62 47 96t111 34q62 0 109.5 -34t47.5 -96t-47.5 -95.5t-109.5 -33.5z" />
    <glyph glyph-name="igrave" unicode="&#xec;" horiz-adv-x="514" 
d="M127 0v1062h260v-1062h-260zM402 1209h-182l-267 262h210z" />
    <glyph glyph-name="uni1EC9" unicode="&#x1ec9;" horiz-adv-x="514" 
d="M127 0v1062h260v-1062h-260zM54 1506q110 0 200.5 -8.5t144 -36.5t53.5 -85q0 -75 -79 -109t-190 -34l-28 73q33 1 72 6.5t67 18t28 35.5q0 35 -71.5 44.5t-196.5 9.5v86z" />
    <glyph glyph-name="uni020B" unicode="&#x20b;" horiz-adv-x="514" 
d="M127 0v1062h260v-1062h-260zM-16 1256q0 116 78 174t195 58q118 0 196 -58t78 -174h-156q0 61 -31.5 94.5t-86.5 33.5q-54 0 -85.5 -33.5t-31.5 -94.5h-156z" />
    <glyph glyph-name="imacron" unicode="&#x12b;" horiz-adv-x="514" 
d="M127 0v1062h260v-1062h-260zM47 1297v112h422v-112h-422z" />
    <glyph glyph-name="iogonek" unicode="&#x12f;" horiz-adv-x="514" 
d="M127 0v1062h260v-1062h-260zM388 -309v-129q-20 -2 -44.5 -4t-49.5 -2q-93 0 -160.5 38.5t-67.5 125.5q0 53 31.5 107.5t75.5 100t81 72.5h134q-32 -27 -73.5 -71.5t-72.5 -91.5t-31 -81q0 -40 28.5 -56t70.5 -16q19 0 40 2t38 5zM258 1258q-63 0 -110.5 34t-47.5 95
q0 62 47.5 96t110.5 34q64 0 111 -34t47 -96t-47 -95.5t-111 -33.5z" />
    <glyph glyph-name="itilde" unicode="&#x129;" horiz-adv-x="514" 
d="M127 0v1062h260v-1062h-260zM575 1454q-1 -44 -20.5 -91.5t-60.5 -80t-106 -32.5q-51 0 -86 20t-58 39q-22 19 -44.5 33t-51.5 14q-37 0 -52.5 -24.5t-16.5 -58.5h-139q2 45 23.5 93t64.5 81t109 33q48 0 82.5 -20t56.5 -39q23 -19 47 -34t50 -15q35 0 48.5 23.5
t15.5 58.5h138z" />
    <glyph glyph-name="j" unicode="j" horiz-adv-x="531" 
d="M273 1258q-64 0 -111.5 34.5t-47.5 96.5q0 61 47.5 95t111.5 34q63 0 110.5 -34t47.5 -95q0 -62 -47.5 -96.5t-110.5 -34.5zM-29 -453q-58 0 -98 6v196q16 -4 42.5 -7t55.5 -3q74 0 109.5 27.5t46.5 67.5t11 80v1148h263v-1156q0 -65 -15 -129t-59 -116t-129.5 -83
t-226.5 -31z" />
    <glyph glyph-name="uni0237" unicode="&#x237;" horiz-adv-x="531" 
d="M-29 -453q-58 0 -98 6v196q16 -4 42.5 -7t55.5 -3q74 0 109.5 27.5t46.5 67.5t11 80v1148h263v-1156q0 -65 -15 -129t-59 -116t-129.5 -83t-226.5 -31z" />
    <glyph glyph-name="jcircumflex" unicode="&#x135;" horiz-adv-x="531" 
d="M-29 -453q-58 0 -98 6v196q16 -4 42.5 -7t55.5 -3q74 0 109.5 27.5t46.5 67.5t11 80v1148h263v-1156q0 -65 -15 -129t-59 -116t-129.5 -83t-226.5 -31zM-45 1213l230 262h174l231 -262h-173l-146 171l-145 -171h-171z" />
    <glyph glyph-name="k" unicode="k" horiz-adv-x="1105" 
d="M132 0v1563h250v-837l382 336h327l-439 -390l434 -672h-278l-323 523l-103 -92v-431h-250z" />
    <glyph glyph-name="uni01E9" unicode="&#x1e9;" horiz-adv-x="1105" 
d="M132 0v1563h250v-837l382 336h327l-439 -390l434 -672h-278l-323 523l-103 -92v-431h-250zM-62 1840h174l146 -128l146 128h176l-232 -198h-179z" />
    <glyph glyph-name="uni0137" unicode="&#x137;" horiz-adv-x="1105" 
d="M132 0v1563h250v-837l382 336h327l-439 -390l434 -672h-278l-323 523l-103 -92v-431h-250zM574 -259q-43 0 -68.5 23t-25.5 62q0 48 35.5 70t77.5 22q40 0 78.5 -25.5t38.5 -88.5q0 -73 -30 -123.5t-72.5 -82t-80.5 -48.5l-18 45q44 17 89.5 60.5t45.5 112.5
q-7 -12 -27.5 -19.5t-42.5 -7.5z" />
    <glyph glyph-name="kgreenlandic" unicode="&#x138;" horiz-adv-x="1004" 
d="M711 0l-247 389l-83 -107v-282h-249v1062h249v-467l325 467h273l-356 -487l369 -575h-281z" />
    <glyph glyph-name="l" unicode="l" horiz-adv-x="543" 
d="M406 1563v-1563h-259v1563h259z" />
    <glyph glyph-name="l.ss01" horiz-adv-x="600" 
d="M444 -19q-51 0 -106 9t-101.5 38t-75.5 88t-29 158v1289h263v-1239q0 -83 25.5 -109t66.5 -26q27 0 51.5 5t41.5 11v-205q-23 -7 -56.5 -13t-79.5 -6z" />
    <glyph glyph-name="lacute" unicode="&#x13a;" horiz-adv-x="543" 
d="M406 1563v-1563h-259v1563h259zM120 1644l276 198h220l-300 -198h-196z" />
    <glyph glyph-name="lacute.ss01" horiz-adv-x="600" 
d="M444 -19q-51 0 -106 9t-101.5 38t-75.5 88t-29 158v1289h263v-1239q0 -83 25.5 -109t66.5 -26q27 0 51.5 5t41.5 11v-205q-23 -7 -56.5 -13t-79.5 -6zM111 1714l238 262h211l-268 -262h-181z" />
    <glyph glyph-name="lcaron" unicode="&#x13e;" horiz-adv-x="673" 
d="M406 1563v-1563h-259v1563h259zM673 1563q0 -84 -9.5 -167.5t-21.5 -148.5t-19 -92h-124q6 28 13.5 91.5t13 146.5t5.5 170h142z" />
    <glyph glyph-name="lcaron.ss01" horiz-adv-x="716" 
d="M459 -19q-51 0 -106 9t-101.5 38t-75.5 88t-29 158v1289h263v-1239q0 -83 25.5 -109t66.5 -26q27 0 51.5 5t41.5 11v-205q-23 -7 -56.5 -13t-79.5 -6zM715 1563q0 -84 -9.5 -167.5t-21.5 -148.5t-19 -92h-124q6 28 13.5 91.5t13 146.5t5.5 170h142z" />
    <glyph glyph-name="uni013C" unicode="&#x13c;" horiz-adv-x="543" 
d="M406 1563v-1563h-259v1563h259zM252 -259q-43 0 -68.5 23t-25.5 62q0 48 35.5 70t77.5 22q40 0 78.5 -25.5t38.5 -88.5q0 -73 -30 -123.5t-72.5 -82t-80.5 -48.5l-18 45q44 17 89.5 60.5t45.5 112.5q-7 -12 -27.5 -19.5t-42.5 -7.5z" />
    <glyph glyph-name="uni013C.ss01" horiz-adv-x="600" 
d="M444 -19q-51 0 -106 9t-101.5 38t-75.5 88t-29 158v1289h263v-1239q0 -83 25.5 -109t66.5 -26q27 0 51.5 5t41.5 11v-205q-23 -7 -56.5 -13t-79.5 -6zM339 -272q-43 0 -68.5 23t-25.5 62q0 48 35.5 70t77.5 22q40 0 78.5 -25.5t38.5 -88.5q0 -73 -30 -123.5t-72.5 -82
t-80.5 -48.5l-18 45q44 17 89.5 60.5t45.5 112.5q-7 -12 -27.5 -19.5t-42.5 -7.5z" />
    <glyph glyph-name="ldot" unicode="&#x140;" horiz-adv-x="803" 
d="M391 1563v-1563h-259v1563h259zM642 662q-62 0 -105 43.5t-43 105.5q0 61 43 104.5t105 43.5q61 0 104.5 -43.5t43.5 -104.5q0 -62 -43.5 -105.5t-104.5 -43.5z" />
    <glyph glyph-name="ldot.ss01" horiz-adv-x="824" 
d="M444 -19q-51 0 -106 9t-101.5 38t-75.5 88t-29 158v1289h263v-1239q0 -83 25.5 -109t66.5 -26q27 0 51.5 5t41.5 11v-205q-23 -7 -56.5 -13t-79.5 -6zM660 662q-62 0 -105 43.5t-43 105.5q0 61 43 104.5t105 43.5q61 0 104.5 -43.5t43.5 -104.5q0 -62 -43.5 -105.5
t-104.5 -43.5z" />
    <glyph glyph-name="uni1E37" unicode="&#x1e37;" horiz-adv-x="543" 
d="M406 1563v-1563h-259v1563h259zM276 -387q-64 0 -111 34t-47 95q0 62 47 96t111 34q62 0 109.5 -34t47.5 -96t-47.5 -95.5t-109.5 -33.5z" />
    <glyph glyph-name="uni1E37.ss01" horiz-adv-x="600" 
d="M444 -19q-51 0 -106 9t-101.5 38t-75.5 88t-29 158v1289h263v-1239q0 -83 25.5 -109t66.5 -26q27 0 51.5 5t41.5 11v-205q-23 -7 -56.5 -13t-79.5 -6zM363 -400q-64 0 -111 34t-47 95q0 62 47 96t111 34q62 0 109.5 -34t47.5 -96t-47.5 -95.5t-109.5 -33.5z" />
    <glyph glyph-name="uni01C9" unicode="&#x1c9;" horiz-adv-x="1131" 
d="M444 -19q-51 0 -106 9t-101.5 38t-75.5 88t-29 158v1289h263v-1239q0 -83 25.5 -109t66.5 -26q27 0 51.5 5t41.5 11v-205q-23 -7 -56.5 -13t-79.5 -6zM873 1258q-64 0 -111.5 34.5t-47.5 96.5q0 61 47.5 95t111.5 34q63 0 110.5 -34t47.5 -95q0 -62 -47.5 -96.5
t-110.5 -34.5zM571 -453q-58 0 -98 6v196q16 -4 42.5 -7t55.5 -3q74 0 109.5 27.5t46.5 67.5t11 80v1148h263v-1156q0 -65 -15 -129t-59 -116t-129.5 -83t-226.5 -31z" />
    <glyph glyph-name="uni1E3B" unicode="&#x1e3b;" horiz-adv-x="543" 
d="M406 1563v-1563h-259v1563h259zM0 -288v111h545v-111h-545z" />
    <glyph glyph-name="uni1E3B.ss01" horiz-adv-x="600" 
d="M444 -19q-51 0 -106 9t-101.5 38t-75.5 88t-29 158v1289h263v-1239q0 -83 25.5 -109t66.5 -26q27 0 51.5 5t41.5 11v-205q-23 -7 -56.5 -13t-79.5 -6zM87 -301v111h545v-111h-545z" />
    <glyph glyph-name="lslash" unicode="&#x142;" horiz-adv-x="521" 
d="M-61 788l208 110v665h259v-528l79 42l69 -139l-148 -78v-860h-259v723l-138 -74z" />
    <glyph glyph-name="lslash.ss01" horiz-adv-x="609" 
d="M444 -19q-51 0 -106 9t-101.5 38t-75.5 88t-29 158v438l-118 -63l-70 139l188 99v676h263v-536l95 50l70 -139l-165 -87v-527q0 -83 25.5 -109t66.5 -26q27 0 51.5 5t41.5 11v-205q-23 -7 -56.5 -13t-79.5 -6z" />
    <glyph glyph-name="m" unicode="m" horiz-adv-x="1833" 
d="M132 0v1062h263v-139q52 73 132 115t183 42q130 0 205 -55.5t108 -146.5q49 92 136 147t206 55q124 0 200.5 -51t111 -140t34.5 -201v-688h-263v611q0 56 -10 111t-47.5 91.5t-120.5 36.5q-81 0 -128.5 -41.5t-68 -105.5t-20.5 -131v-572h-261v609q0 53 -10 109t-47.5 94
t-119.5 38q-80 0 -128 -41.5t-70 -107.5t-22 -138v-563h-263z" />
    <glyph glyph-name="uni1E43" unicode="&#x1e43;" horiz-adv-x="1833" 
d="M132 0v1062h263v-139q52 73 132 115t183 42q130 0 205 -55.5t108 -146.5q49 92 136 147t206 55q124 0 200.5 -51t111 -140t34.5 -201v-688h-263v611q0 56 -10 111t-47.5 91.5t-120.5 36.5q-81 0 -128.5 -41.5t-68 -105.5t-20.5 -131v-572h-261v609q0 53 -10 109t-47.5 94
t-119.5 38q-80 0 -128 -41.5t-70 -107.5t-22 -138v-563h-263zM934 -387q-64 0 -111 34t-47 95q0 62 47 96t111 34q62 0 109.5 -34t47.5 -96t-47.5 -95.5t-109.5 -33.5z" />
    <glyph glyph-name="n" unicode="n" horiz-adv-x="1268" 
d="M132 0v1062h263v-160q61 83 155.5 130.5t204.5 47.5q192 0 292 -111t100 -297v-672h-264v597q0 108 -48 180.5t-179 72.5q-115 0 -188 -80t-73 -203v-567h-263z" />
    <glyph glyph-name="nacute" unicode="&#x144;" horiz-adv-x="1268" 
d="M132 0v1062h263v-160q61 83 155.5 130.5t204.5 47.5q192 0 292 -111t100 -297v-672h-264v597q0 108 -48 180.5t-179 72.5q-115 0 -188 -80t-73 -203v-567h-263zM505 1213l238 262h211l-268 -262h-181z" />
    <glyph glyph-name="ncaron" unicode="&#x148;" horiz-adv-x="1268" 
d="M132 0v1062h263v-160q61 83 155.5 130.5t204.5 47.5q192 0 292 -111t100 -297v-672h-264v597q0 108 -48 180.5t-179 72.5q-115 0 -188 -80t-73 -203v-567h-263zM337 1475h171l145 -171l146 171h173l-231 -262h-174z" />
    <glyph glyph-name="uni0146" unicode="&#x146;" horiz-adv-x="1268" 
d="M132 0v1062h263v-160q61 83 155.5 130.5t204.5 47.5q192 0 292 -111t100 -297v-672h-264v597q0 108 -48 180.5t-179 72.5q-115 0 -188 -80t-73 -203v-567h-263zM609 -259q-43 0 -68.5 23t-25.5 62q0 48 35.5 70t77.5 22q40 0 78.5 -25.5t38.5 -88.5q0 -73 -30 -123.5
t-72.5 -82t-80.5 -48.5l-18 45q44 17 89.5 60.5t45.5 112.5q-7 -12 -27.5 -19.5t-42.5 -7.5z" />
    <glyph glyph-name="uni1E45" unicode="&#x1e45;" horiz-adv-x="1268" 
d="M132 0v1062h263v-160q61 83 155.5 130.5t204.5 47.5q192 0 292 -111t100 -297v-672h-264v597q0 108 -48 180.5t-179 72.5q-115 0 -188 -80t-73 -203v-567h-263zM655 1258q-63 0 -110.5 34t-47.5 95q0 62 47.5 96t110.5 34q64 0 111 -34t47 -96t-47 -95.5t-111 -33.5z" />
    <glyph glyph-name="uni1E47" unicode="&#x1e47;" horiz-adv-x="1268" 
d="M132 0v1062h263v-160q61 83 155.5 130.5t204.5 47.5q192 0 292 -111t100 -297v-672h-264v597q0 108 -48 180.5t-179 72.5q-115 0 -188 -80t-73 -203v-567h-263zM633 -387q-64 0 -111 34t-47 95q0 62 47 96t111 34q62 0 109.5 -34t47.5 -96t-47.5 -95.5t-109.5 -33.5z" />
    <glyph glyph-name="eng" unicode="&#x14b;" horiz-adv-x="1256" 
d="M132 0v1062h263v-160q61 83 155.5 130.5t204.5 47.5q192 0 286 -111t94 -297v-720q0 -206 -115.5 -307.5t-388.5 -101.5v190q118 0 179 61t61 152v651q0 72 -17.5 129t-64 90.5t-133.5 33.5q-115 0 -188 -80t-73 -203v-567h-263z" />
    <glyph glyph-name="uni0272" unicode="&#x272;" horiz-adv-x="1204" 
d="M-127 -462v189q106 0 156.5 68t50.5 159v1108h263v-159q61 82 155 129.5t204 47.5q192 0 286 -111t94 -297v-672h-263v597q0 72 -17.5 129t-64.5 90.5t-134 33.5q-110 0 -182 -73.5t-78 -188.5v-634q0 -75 -14.5 -149t-60.5 -134.5t-140.5 -96.5t-254.5 -36z" />
    <glyph glyph-name="uni01CC" unicode="&#x1cc;" horiz-adv-x="1799" 
d="M132 0v1062h263v-160q61 83 155.5 130.5t204.5 47.5q192 0 292 -111t100 -297v-672h-264v597q0 108 -48 180.5t-179 72.5q-115 0 -188 -80t-73 -203v-567h-263zM1541 1258q-64 0 -111.5 34.5t-47.5 96.5q0 61 47.5 95t111.5 34q63 0 110.5 -34t47.5 -95
q0 -62 -47.5 -96.5t-110.5 -34.5zM1239 -453q-58 0 -98 6v196q16 -4 42.5 -7t55.5 -3q74 0 109.5 27.5t46.5 67.5t11 80v1148h263v-1156q0 -65 -15 -129t-59 -116t-129.5 -83t-226.5 -31z" />
    <glyph glyph-name="uni1E49" unicode="&#x1e49;" horiz-adv-x="1268" 
d="M132 0v1062h263v-160q61 83 155.5 130.5t204.5 47.5q192 0 292 -111t100 -297v-672h-264v597q0 108 -48 180.5t-179 72.5q-115 0 -188 -80t-73 -203v-567h-263zM357 -288v111h545v-111h-545z" />
    <glyph glyph-name="ntilde" unicode="&#xf1;" horiz-adv-x="1268" 
d="M132 0v1062h263v-160q61 83 155.5 130.5t204.5 47.5q192 0 292 -111t100 -297v-672h-264v597q0 108 -48 180.5t-179 72.5q-115 0 -188 -80t-73 -203v-567h-263zM972 1454q-1 -44 -20.5 -91.5t-60.5 -80t-106 -32.5q-51 0 -86 20t-58 39q-22 19 -44.5 33t-51.5 14
q-37 0 -52.5 -24.5t-16.5 -58.5h-139q2 45 23.5 93t64.5 81t109 33q48 0 82.5 -20t56.5 -39q23 -19 47 -34t50 -15q35 0 48.5 23.5t15.5 58.5h138z" />
    <glyph glyph-name="o" unicode="o" horiz-adv-x="1308" 
d="M654 -21q-168 0 -296 70.5t-200.5 195.5t-72.5 286q0 162 72.5 285.5t200.5 193.5t296 70t296 -70t200.5 -193.5t72.5 -285.5q0 -161 -72.5 -286t-200.5 -195.5t-296 -70.5zM654 194q135 0 219 92.5t84 244.5q0 153 -84 243t-219 90t-219 -90t-84 -243q0 -152 84 -244.5
t219 -92.5z" />
    <glyph glyph-name="oacute" unicode="&#xf3;" horiz-adv-x="1308" 
d="M654 -21q-168 0 -296 70.5t-200.5 195.5t-72.5 286q0 162 72.5 285.5t200.5 193.5t296 70t296 -70t200.5 -193.5t72.5 -285.5q0 -161 -72.5 -286t-200.5 -195.5t-296 -70.5zM654 194q135 0 219 92.5t84 244.5q0 153 -84 243t-219 90t-219 -90t-84 -243q0 -152 84 -244.5
t219 -92.5zM505 1213l238 262h211l-268 -262h-181z" />
    <glyph glyph-name="obreve" unicode="&#x14f;" horiz-adv-x="1308" 
d="M654 -21q-168 0 -296 70.5t-200.5 195.5t-72.5 286q0 162 72.5 285.5t200.5 193.5t296 70t296 -70t200.5 -193.5t72.5 -285.5q0 -161 -72.5 -286t-200.5 -195.5t-296 -70.5zM654 194q135 0 219 92.5t84 244.5q0 153 -84 243t-219 90t-219 -90t-84 -243q0 -152 84 -244.5
t219 -92.5zM382 1495h156q0 -61 31.5 -101.5t85.5 -40.5q55 0 86 40.5t31 101.5h157q0 -116 -78.5 -180.5t-195.5 -64.5t-195 64.5t-78 180.5z" />
    <glyph glyph-name="uni01D2" unicode="&#x1d2;" horiz-adv-x="1308" 
d="M654 -21q-168 0 -296 70.5t-200.5 195.5t-72.5 286q0 162 72.5 285.5t200.5 193.5t296 70t296 -70t200.5 -193.5t72.5 -285.5q0 -161 -72.5 -286t-200.5 -195.5t-296 -70.5zM654 194q135 0 219 92.5t84 244.5q0 153 -84 243t-219 90t-219 -90t-84 -243q0 -152 84 -244.5
t219 -92.5zM337 1475h171l145 -171l146 171h173l-231 -262h-174z" />
    <glyph glyph-name="ocircumflex" unicode="&#xf4;" horiz-adv-x="1308" 
d="M654 -21q-168 0 -296 70.5t-200.5 195.5t-72.5 286q0 162 72.5 285.5t200.5 193.5t296 70t296 -70t200.5 -193.5t72.5 -285.5q0 -161 -72.5 -286t-200.5 -195.5t-296 -70.5zM654 194q135 0 219 92.5t84 244.5q0 153 -84 243t-219 90t-219 -90t-84 -243q0 -152 84 -244.5
t219 -92.5zM337 1213l230 262h174l231 -262h-173l-146 171l-145 -171h-171z" />
    <glyph glyph-name="uni1ED1" unicode="&#x1ed1;" horiz-adv-x="1308" 
d="M654 -21q-168 0 -296 70.5t-200.5 195.5t-72.5 286q0 162 72.5 285.5t200.5 193.5t296 70t296 -70t200.5 -193.5t72.5 -285.5q0 -161 -72.5 -286t-200.5 -195.5t-296 -70.5zM654 194q135 0 219 92.5t84 244.5q0 153 -84 243t-219 90t-219 -90t-84 -243q0 -152 84 -244.5
t219 -92.5zM810 1433l192 263h179l-214 -263h-157zM337 1213l230 262h174l231 -262h-173l-146 171l-145 -171h-171z" />
    <glyph glyph-name="uni1ED9" unicode="&#x1ed9;" horiz-adv-x="1308" 
d="M654 -21q-168 0 -296 70.5t-200.5 195.5t-72.5 286q0 162 72.5 285.5t200.5 193.5t296 70t296 -70t200.5 -193.5t72.5 -285.5q0 -161 -72.5 -286t-200.5 -195.5t-296 -70.5zM654 194q135 0 219 92.5t84 244.5q0 153 -84 243t-219 90t-219 -90t-84 -243q0 -152 84 -244.5
t219 -92.5zM657 -387q-64 0 -111 34t-47 95q0 62 47 96t111 34q62 0 109.5 -34t47.5 -96t-47.5 -95.5t-109.5 -33.5zM337 1213l230 262h174l231 -262h-173l-146 171l-145 -171h-171z" />
    <glyph glyph-name="uni1ED3" unicode="&#x1ed3;" horiz-adv-x="1308" 
d="M654 -21q-168 0 -296 70.5t-200.5 195.5t-72.5 286q0 162 72.5 285.5t200.5 193.5t296 70t296 -70t200.5 -193.5t72.5 -285.5q0 -161 -72.5 -286t-200.5 -195.5t-296 -70.5zM654 194q135 0 219 92.5t84 244.5q0 153 -84 243t-219 90t-219 -90t-84 -243q0 -152 84 -244.5
t219 -92.5zM1048 1433h-158l-213 263h179zM339 1213l230 262h174l231 -262h-173l-146 171l-145 -171h-171z" />
    <glyph glyph-name="uni1ED5" unicode="&#x1ed5;" horiz-adv-x="1308" 
d="M654 -21q-168 0 -296 70.5t-200.5 195.5t-72.5 286q0 162 72.5 285.5t200.5 193.5t296 70t296 -70t200.5 -193.5t72.5 -285.5q0 -161 -72.5 -286t-200.5 -195.5t-296 -70.5zM654 194q135 0 219 92.5t84 244.5q0 153 -84 243t-219 90t-219 -90t-84 -243q0 -152 84 -244.5
t219 -92.5zM880 1431l-26 65q30 2 66 7t61.5 16.5t25.5 31.5q0 33 -65.5 41.5t-180.5 8.5v77q101 0 183 -7.5t131 -32.5t49 -78q0 -68 -72 -98.5t-172 -30.5zM337 1213l230 262h174l231 -262h-173l-146 171l-145 -171h-171z" />
    <glyph glyph-name="uni1ED7" unicode="&#x1ed7;" horiz-adv-x="1308" 
d="M654 -21q-168 0 -296 70.5t-200.5 195.5t-72.5 286q0 162 72.5 285.5t200.5 193.5t296 70t296 -70t200.5 -193.5t72.5 -285.5q0 -161 -72.5 -286t-200.5 -195.5t-296 -70.5zM654 194q135 0 219 92.5t84 244.5q0 153 -84 243t-219 90t-219 -90t-84 -243q0 -152 84 -244.5
t219 -92.5zM786 1546q-53 0 -87 18.5t-56 39.5q-21 19 -42.5 33.5t-50.5 14.5q-37 0 -54 -24.5t-19 -58.5h-138q1 45 23 93t65 81t108 33q48 0 82.5 -20t57.5 -39t46.5 -34t50.5 -15q34 0 48 23.5t15 58.5h138q-1 -44 -20.5 -91.5t-60.5 -80t-106 -32.5zM337 1213l230 262
h174l231 -262h-173l-146 171l-145 -171h-171z" />
    <glyph glyph-name="uni020D" unicode="&#x20d;" horiz-adv-x="1308" 
d="M654 -21q-168 0 -296 70.5t-200.5 195.5t-72.5 286q0 162 72.5 285.5t200.5 193.5t296 70t296 -70t200.5 -193.5t72.5 -285.5q0 -161 -72.5 -286t-200.5 -195.5t-296 -70.5zM654 194q135 0 219 92.5t84 244.5q0 153 -84 243t-219 90t-219 -90t-84 -243q0 -152 84 -244.5
t219 -92.5zM902 1213h-145l-180 262h172zM579 1213h-146l-198 262h171z" />
    <glyph glyph-name="odieresis" unicode="&#xf6;" horiz-adv-x="1308" 
d="M654 -21q-168 0 -296 70.5t-200.5 195.5t-72.5 286q0 162 72.5 285.5t200.5 193.5t296 70t296 -70t200.5 -193.5t72.5 -285.5q0 -161 -72.5 -286t-200.5 -195.5t-296 -70.5zM654 194q135 0 219 92.5t84 244.5q0 153 -84 243t-219 90t-219 -90t-84 -243q0 -152 84 -244.5
t219 -92.5zM428 1254q-58 0 -101.5 31.5t-43.5 88.5t43.5 88t101.5 31t102 -31t44 -88t-44 -88.5t-102 -31.5zM880 1254q-59 0 -102 31.5t-43 88.5t43 88t102 31q58 0 101.5 -31t43.5 -88t-43.5 -88.5t-101.5 -31.5z" />
    <glyph glyph-name="uni022B" unicode="&#x22b;" horiz-adv-x="1308" 
d="M654 -21q-168 0 -296 70.5t-200.5 195.5t-72.5 286q0 162 72.5 285.5t200.5 193.5t296 70t296 -70t200.5 -193.5t72.5 -285.5q0 -161 -72.5 -286t-200.5 -195.5t-296 -70.5zM654 194q135 0 219 92.5t84 244.5q0 153 -84 243t-219 90t-219 -90t-84 -243q0 -152 84 -244.5
t219 -92.5zM428 1254q-58 0 -101.5 31.5t-43.5 88.5t43.5 88t101.5 31t102 -31t44 -88t-44 -88.5t-102 -31.5zM880 1254q-59 0 -102 31.5t-43 88.5t43 88t102 31q58 0 101.5 -31t43.5 -88t-43.5 -88.5t-101.5 -31.5zM360 1629v111h588v-111h-588z" />
    <glyph glyph-name="uni0231" unicode="&#x231;" horiz-adv-x="1308" 
d="M654 -21q-168 0 -296 70.5t-200.5 195.5t-72.5 286q0 162 72.5 285.5t200.5 193.5t296 70t296 -70t200.5 -193.5t72.5 -285.5q0 -161 -72.5 -286t-200.5 -195.5t-296 -70.5zM654 194q135 0 219 92.5t84 244.5q0 153 -84 243t-219 90t-219 -90t-84 -243q0 -152 84 -244.5
t219 -92.5zM655 1258q-63 0 -110.5 34t-47.5 95q0 62 47.5 96t110.5 34q64 0 111 -34t47 -96t-47 -95.5t-111 -33.5zM360 1649v111h588v-111h-588z" />
    <glyph glyph-name="uni1ECD" unicode="&#x1ecd;" horiz-adv-x="1308" 
d="M654 -21q-168 0 -296 70.5t-200.5 195.5t-72.5 286q0 162 72.5 285.5t200.5 193.5t296 70t296 -70t200.5 -193.5t72.5 -285.5q0 -161 -72.5 -286t-200.5 -195.5t-296 -70.5zM654 194q135 0 219 92.5t84 244.5q0 153 -84 243t-219 90t-219 -90t-84 -243q0 -152 84 -244.5
t219 -92.5zM657 -387q-64 0 -111 34t-47 95q0 62 47 96t111 34q62 0 109.5 -34t47.5 -96t-47.5 -95.5t-109.5 -33.5z" />
    <glyph glyph-name="ograve" unicode="&#xf2;" horiz-adv-x="1308" 
d="M654 -21q-168 0 -296 70.5t-200.5 195.5t-72.5 286q0 162 72.5 285.5t200.5 193.5t296 70t296 -70t200.5 -193.5t72.5 -285.5q0 -161 -72.5 -286t-200.5 -195.5t-296 -70.5zM654 194q135 0 219 92.5t84 244.5q0 153 -84 243t-219 90t-219 -90t-84 -243q0 -152 84 -244.5
t219 -92.5zM799 1209h-182l-267 262h210z" />
    <glyph glyph-name="uni1ECF" unicode="&#x1ecf;" horiz-adv-x="1308" 
d="M654 -21q-168 0 -296 70.5t-200.5 195.5t-72.5 286q0 162 72.5 285.5t200.5 193.5t296 70t296 -70t200.5 -193.5t72.5 -285.5q0 -161 -72.5 -286t-200.5 -195.5t-296 -70.5zM654 194q135 0 219 92.5t84 244.5q0 153 -84 243t-219 90t-219 -90t-84 -243q0 -152 84 -244.5
t219 -92.5zM451 1506q110 0 200.5 -8.5t144 -36.5t53.5 -85q0 -75 -79 -109t-190 -34l-28 73q33 1 72 6.5t67 18t28 35.5q0 35 -71.5 44.5t-196.5 9.5v86z" />
    <glyph glyph-name="ohorn" unicode="&#x1a1;" horiz-adv-x="1306" 
d="M651 -21q-168 0 -296 70.5t-200.5 195.5t-72.5 286q0 162 72.5 285.5t200.5 193.5t296 70q96 0 179 -23.5t151 -66.5q77 9 101.5 69t24.5 200h146q0 -160 -39.5 -247t-118.5 -121q60 -70 92.5 -161.5t32.5 -198.5q0 -161 -72 -286t-200.5 -195.5t-296.5 -70.5zM651 194
q136 0 220 92.5t84 244.5q0 153 -84 243t-220 90q-135 0 -219.5 -90t-84.5 -243q0 -152 84.5 -244.5t219.5 -92.5z" />
    <glyph glyph-name="uni1EDB" unicode="&#x1edb;" horiz-adv-x="1306" 
d="M651 -21q-168 0 -296 70.5t-200.5 195.5t-72.5 286q0 162 72.5 285.5t200.5 193.5t296 70q96 0 179 -23.5t151 -66.5q77 9 101.5 69t24.5 200h146q0 -160 -39.5 -247t-118.5 -121q60 -70 92.5 -161.5t32.5 -198.5q0 -161 -72 -286t-200.5 -195.5t-296.5 -70.5zM651 194
q136 0 220 92.5t84 244.5q0 153 -84 243t-220 90q-135 0 -219.5 -90t-84.5 -243q0 -152 84.5 -244.5t219.5 -92.5zM502 1213l238 262h211l-268 -262h-181z" />
    <glyph glyph-name="uni1EE3" unicode="&#x1ee3;" horiz-adv-x="1306" 
d="M651 -21q-168 0 -296 70.5t-200.5 195.5t-72.5 286q0 162 72.5 285.5t200.5 193.5t296 70q96 0 179 -23.5t151 -66.5q77 9 101.5 69t24.5 200h146q0 -160 -39.5 -247t-118.5 -121q60 -70 92.5 -161.5t32.5 -198.5q0 -161 -72 -286t-200.5 -195.5t-296.5 -70.5zM651 194
q136 0 220 92.5t84 244.5q0 153 -84 243t-220 90q-135 0 -219.5 -90t-84.5 -243q0 -152 84.5 -244.5t219.5 -92.5zM654 -387q-64 0 -111 34t-47 95q0 62 47 96t111 34q62 0 109.5 -34t47.5 -96t-47.5 -95.5t-109.5 -33.5z" />
    <glyph glyph-name="uni1EDD" unicode="&#x1edd;" horiz-adv-x="1306" 
d="M651 -21q-168 0 -296 70.5t-200.5 195.5t-72.5 286q0 162 72.5 285.5t200.5 193.5t296 70q96 0 179 -23.5t151 -66.5q77 9 101.5 69t24.5 200h146q0 -160 -39.5 -247t-118.5 -121q60 -70 92.5 -161.5t32.5 -198.5q0 -161 -72 -286t-200.5 -195.5t-296.5 -70.5zM651 194
q136 0 220 92.5t84 244.5q0 153 -84 243t-220 90q-135 0 -219.5 -90t-84.5 -243q0 -152 84.5 -244.5t219.5 -92.5zM796 1209h-182l-267 262h210z" />
    <glyph glyph-name="uni1EDF" unicode="&#x1edf;" horiz-adv-x="1306" 
d="M651 -21q-168 0 -296 70.5t-200.5 195.5t-72.5 286q0 162 72.5 285.5t200.5 193.5t296 70q96 0 179 -23.5t151 -66.5q77 9 101.5 69t24.5 200h146q0 -160 -39.5 -247t-118.5 -121q60 -70 92.5 -161.5t32.5 -198.5q0 -161 -72 -286t-200.5 -195.5t-296.5 -70.5zM651 194
q136 0 220 92.5t84 244.5q0 153 -84 243t-220 90q-135 0 -219.5 -90t-84.5 -243q0 -152 84.5 -244.5t219.5 -92.5zM448 1506q110 0 200.5 -8.5t144 -36.5t53.5 -85q0 -75 -79 -109t-190 -34l-28 73q33 1 72 6.5t67 18t28 35.5q0 35 -71.5 44.5t-196.5 9.5v86z" />
    <glyph glyph-name="uni1EE1" unicode="&#x1ee1;" horiz-adv-x="1306" 
d="M651 -21q-168 0 -296 70.5t-200.5 195.5t-72.5 286q0 162 72.5 285.5t200.5 193.5t296 70q96 0 179 -23.5t151 -66.5q77 9 101.5 69t24.5 200h146q0 -160 -39.5 -247t-118.5 -121q60 -70 92.5 -161.5t32.5 -198.5q0 -161 -72 -286t-200.5 -195.5t-296.5 -70.5zM651 194
q136 0 220 92.5t84 244.5q0 153 -84 243t-220 90q-135 0 -219.5 -90t-84.5 -243q0 -152 84.5 -244.5t219.5 -92.5zM969 1454q-1 -44 -20.5 -91.5t-60.5 -80t-106 -32.5q-51 0 -86 20t-58 39q-22 19 -44.5 33t-51.5 14q-37 0 -52.5 -24.5t-16.5 -58.5h-139q2 45 23.5 93
t64.5 81t109 33q48 0 82.5 -20t56.5 -39q23 -19 47 -34t50 -15q35 0 48.5 23.5t15.5 58.5h138z" />
    <glyph glyph-name="ohungarumlaut" unicode="&#x151;" horiz-adv-x="1308" 
d="M654 -21q-168 0 -296 70.5t-200.5 195.5t-72.5 286q0 162 72.5 285.5t200.5 193.5t296 70t296 -70t200.5 -193.5t72.5 -285.5q0 -161 -72.5 -286t-200.5 -195.5t-296 -70.5zM654 194q135 0 219 92.5t84 244.5q0 153 -84 243t-219 90t-219 -90t-84 -243q0 -152 84 -244.5
t219 -92.5zM411 1213l154 262h171l-186 -262h-139zM740 1213l166 262h172l-199 -262h-139z" />
    <glyph glyph-name="uni020F" unicode="&#x20f;" horiz-adv-x="1308" 
d="M654 -21q-168 0 -296 70.5t-200.5 195.5t-72.5 286q0 162 72.5 285.5t200.5 193.5t296 70t296 -70t200.5 -193.5t72.5 -285.5q0 -161 -72.5 -286t-200.5 -195.5t-296 -70.5zM654 194q135 0 219 92.5t84 244.5q0 153 -84 243t-219 90t-219 -90t-84 -243q0 -152 84 -244.5
t219 -92.5zM381 1256q0 116 78 174t195 58q118 0 196 -58t78 -174h-156q0 61 -31.5 94.5t-86.5 33.5q-54 0 -85.5 -33.5t-31.5 -94.5h-156z" />
    <glyph glyph-name="omacron" unicode="&#x14d;" horiz-adv-x="1308" 
d="M654 -21q-168 0 -296 70.5t-200.5 195.5t-72.5 286q0 162 72.5 285.5t200.5 193.5t296 70t296 -70t200.5 -193.5t72.5 -285.5q0 -161 -72.5 -286t-200.5 -195.5t-296 -70.5zM654 194q135 0 219 92.5t84 244.5q0 153 -84 243t-219 90t-219 -90t-84 -243q0 -152 84 -244.5
t219 -92.5zM361 1297v112h588v-112h-588z" />
    <glyph glyph-name="uni1E53" unicode="&#x1e53;" horiz-adv-x="1308" 
d="M654 -21q-168 0 -296 70.5t-200.5 195.5t-72.5 286q0 162 72.5 285.5t200.5 193.5t296 70t296 -70t200.5 -193.5t72.5 -285.5q0 -161 -72.5 -286t-200.5 -195.5t-296 -70.5zM654 194q135 0 219 92.5t84 244.5q0 153 -84 243t-219 90t-219 -90t-84 -243q0 -152 84 -244.5
t219 -92.5zM361 1297v112h588v-112h-588zM505 1560l238 262h211l-268 -262h-181z" />
    <glyph glyph-name="uni1E51" unicode="&#x1e51;" horiz-adv-x="1308" 
d="M654 -21q-168 0 -296 70.5t-200.5 195.5t-72.5 286q0 162 72.5 285.5t200.5 193.5t296 70t296 -70t200.5 -193.5t72.5 -285.5q0 -161 -72.5 -286t-200.5 -195.5t-296 -70.5zM654 194q135 0 219 92.5t84 244.5q0 153 -84 243t-219 90t-219 -90t-84 -243q0 -152 84 -244.5
t219 -92.5zM361 1297v112h588v-112h-588zM799 1556h-182l-267 262h210z" />
    <glyph glyph-name="uni01EB" unicode="&#x1eb;" horiz-adv-x="1302" 
d="M654 -21q-168 0 -296 70.5t-200.5 195.5t-72.5 286q0 162 72.5 285.5t200.5 193.5t296 70t296 -70t200.5 -193.5t72.5 -285.5q0 -183 -93.5 -319t-251.5 -195q-32 -28 -72 -71.5t-69.5 -89t-29.5 -79.5q0 -40 28 -56t70 -16q19 0 40 2.5t38 4.5v-128q-20 -3 -44.5 -5
t-48.5 -2q-94 0 -161.5 38.5t-67.5 126.5q0 63 44 127.5t94 110.5q-22 -1 -45 -1zM654 194q135 0 219 92.5t84 244.5q0 153 -84 243t-219 90t-219 -90t-84 -243q0 -152 84 -244.5t219 -92.5z" />
    <glyph glyph-name="oslash" unicode="&#xf8;" horiz-adv-x="1308" 
d="M654 -21q-148 0 -270 57l-64 -92l-107 77l60 86q-88 74 -138 183t-50 241q0 162 72.5 285.5t200.5 193.5t296 70q141 0 258 -52l62 88l107 -76l-55 -80q93 -73 145 -183t52 -246q0 -161 -72.5 -286t-200.5 -195.5t-296 -70.5zM351 531q0 -131 64 -220l366 528
q-58 25 -127 25q-135 0 -219 -90t-84 -243zM654 194q135 0 219 92.5t84 244.5q0 139 -71 228l-371 -534q62 -31 139 -31z" />
    <glyph glyph-name="oslashacute" unicode="&#x1ff;" horiz-adv-x="1308" 
d="M654 -21q-148 0 -270 57l-64 -92l-107 77l60 86q-88 74 -138 183t-50 241q0 162 72.5 285.5t200.5 193.5t296 70q141 0 258 -52l62 88l107 -76l-55 -80q93 -73 145 -183t52 -246q0 -161 -72.5 -286t-200.5 -195.5t-296 -70.5zM351 531q0 -131 64 -220l366 528
q-58 25 -127 25q-135 0 -219 -90t-84 -243zM654 194q135 0 219 92.5t84 244.5q0 139 -71 228l-371 -534q62 -31 139 -31zM499 1213l238 262h211l-268 -262h-181z" />
    <glyph glyph-name="otilde" unicode="&#xf5;" horiz-adv-x="1308" 
d="M654 -21q-168 0 -296 70.5t-200.5 195.5t-72.5 286q0 162 72.5 285.5t200.5 193.5t296 70t296 -70t200.5 -193.5t72.5 -285.5q0 -161 -72.5 -286t-200.5 -195.5t-296 -70.5zM654 194q135 0 219 92.5t84 244.5q0 153 -84 243t-219 90t-219 -90t-84 -243q0 -152 84 -244.5
t219 -92.5zM972 1454q-1 -44 -20.5 -91.5t-60.5 -80t-106 -32.5q-51 0 -86 20t-58 39q-22 19 -44.5 33t-51.5 14q-37 0 -52.5 -24.5t-16.5 -58.5h-139q2 45 23.5 93t64.5 81t109 33q48 0 82.5 -20t56.5 -39q23 -19 47 -34t50 -15q35 0 48.5 23.5t15.5 58.5h138z" />
    <glyph glyph-name="uni1E4D" unicode="&#x1e4d;" horiz-adv-x="1308" 
d="M654 -21q-168 0 -296 70.5t-200.5 195.5t-72.5 286q0 162 72.5 285.5t200.5 193.5t296 70t296 -70t200.5 -193.5t72.5 -285.5q0 -161 -72.5 -286t-200.5 -195.5t-296 -70.5zM654 194q135 0 219 92.5t84 244.5q0 153 -84 243t-219 90t-219 -90t-84 -243q0 -152 84 -244.5
t219 -92.5zM972 1454q-1 -44 -20.5 -91.5t-60.5 -80t-106 -32.5q-51 0 -86 20t-58 39q-22 19 -44.5 33t-51.5 14q-37 0 -52.5 -24.5t-16.5 -58.5h-139q2 45 23.5 93t64.5 81t109 33q48 0 82.5 -20t56.5 -39q23 -19 47 -34t50 -15q35 0 48.5 23.5t15.5 58.5h138zM502 1564
l276 198h220l-300 -198h-196z" />
    <glyph glyph-name="uni1E4F" unicode="&#x1e4f;" horiz-adv-x="1308" 
d="M654 -21q-168 0 -296 70.5t-200.5 195.5t-72.5 286q0 162 72.5 285.5t200.5 193.5t296 70t296 -70t200.5 -193.5t72.5 -285.5q0 -161 -72.5 -286t-200.5 -195.5t-296 -70.5zM654 194q135 0 219 92.5t84 244.5q0 153 -84 243t-219 90t-219 -90t-84 -243q0 -152 84 -244.5
t219 -92.5zM972 1454q-1 -44 -20.5 -91.5t-60.5 -80t-106 -32.5q-51 0 -86 20t-58 39q-22 19 -44.5 33t-51.5 14q-37 0 -52.5 -24.5t-16.5 -58.5h-139q2 45 23.5 93t64.5 81t109 33q48 0 82.5 -20t56.5 -39q23 -19 47 -34t50 -15q35 0 48.5 23.5t15.5 58.5h138zM429 1557
q-58 0 -101.5 31.5t-43.5 88.5t43.5 88t101.5 31t102 -31t44 -88t-44 -88.5t-102 -31.5zM881 1557q-59 0 -102 31.5t-43 88.5t43 88t102 31q58 0 101.5 -31t43.5 -88t-43.5 -88.5t-101.5 -31.5z" />
    <glyph glyph-name="uni022D" unicode="&#x22d;" horiz-adv-x="1308" 
d="M654 -21q-168 0 -296 70.5t-200.5 195.5t-72.5 286q0 162 72.5 285.5t200.5 193.5t296 70t296 -70t200.5 -193.5t72.5 -285.5q0 -161 -72.5 -286t-200.5 -195.5t-296 -70.5zM654 194q135 0 219 92.5t84 244.5q0 153 -84 243t-219 90t-219 -90t-84 -243q0 -152 84 -244.5
t219 -92.5zM972 1454q-1 -44 -20.5 -91.5t-60.5 -80t-106 -32.5q-51 0 -86 20t-58 39q-22 19 -44.5 33t-51.5 14q-37 0 -52.5 -24.5t-16.5 -58.5h-139q2 45 23.5 93t64.5 81t109 33q48 0 82.5 -20t56.5 -39q23 -19 47 -34t50 -15q35 0 48.5 23.5t15.5 58.5h138zM360 1618
v111h588v-111h-588z" />
    <glyph glyph-name="oe" unicode="&#x153;" horiz-adv-x="2173" 
d="M654 -21q-168 0 -296 70.5t-200.5 195.5t-72.5 286q0 162 72.5 285.5t200.5 193.5t296 70q138 0 250 -49t187 -136q75 87 187.5 136t250.5 49q172 0 297.5 -70t193.5 -195t68 -289q0 -52 -4 -80h-863q19 -125 97 -192.5t218 -67.5q144 0 206.5 48.5t68.5 100.5h262
q-9 -89 -73.5 -171t-183 -134.5t-287.5 -52.5q-140 0 -252.5 49.5t-187.5 137.5q-75 -87 -186.5 -136t-248.5 -49zM1226 633h589v11q-6 91 -77.5 160.5t-205.5 69.5q-129 0 -207 -65.5t-99 -175.5zM654 194q135 0 219.5 92.5t84.5 244.5q0 153 -84.5 243t-219.5 90
t-219.5 -90t-84.5 -243q0 -152 84.5 -244.5t219.5 -92.5z" />
    <glyph glyph-name="p" unicode="p" horiz-adv-x="1304" 
d="M132 -437v1499h263v-127q65 69 151.5 107t183.5 38q129 0 240.5 -63t180 -185t68.5 -298q0 -181 -67 -305t-178.5 -187.5t-243.5 -63.5q-97 0 -183.5 40t-151.5 111v-566h-263zM396 478q0 -79 39 -139t101.5 -94.5t133.5 -34.5q115 0 196 79t81 245q0 167 -81 244.5
t-196 77.5q-70 0 -132.5 -33.5t-102 -93t-39.5 -137.5h-1v-104h1v-10z" />
    <glyph glyph-name="thorn" unicode="&#xfe;" horiz-adv-x="1303" 
d="M132 -437v2000h263v-627q65 68 151.5 106t183.5 38q129 0 240 -63.5t179.5 -185t68.5 -297.5q0 -181 -67 -305t-178 -187.5t-243 -63.5q-97 0 -183.5 40t-151.5 110v-565h-263zM669 856q-70 0 -132.5 -33.5t-102 -93t-39.5 -137.5v-114q0 -79 39 -139t102 -94.5
t133 -34.5q115 0 196.5 79t81.5 245q0 167 -81 244.5t-197 77.5z" />
    <glyph glyph-name="q" unicode="q" horiz-adv-x="1297" 
d="M573 -22q-132 0 -243 63.5t-178 187.5t-67 305q0 176 68.5 298t180 185t239.5 63q97 0 184 -38t151 -106v126h263v-1499h-263v564q-63 -69 -149 -109t-186 -40zM634 210q73 0 135 35t100.5 96.5t38.5 141.5v109q0 78 -39.5 137.5t-102 93t-132.5 33.5q-115 0 -196 -77.5
t-81 -244.5q0 -166 81 -245t196 -79z" />
    <glyph glyph-name="r" unicode="r" horiz-adv-x="881" 
d="M132 0v1062h263v-142q45 72 120.5 116t182.5 44q64 0 102 -9.5t47 -15.5l-48 -241q-9 7 -40 17.5t-82 10.5q-108 0 -169.5 -48t-87 -120t-25.5 -146v-528h-263z" />
    <glyph glyph-name="racute" unicode="&#x155;" horiz-adv-x="881" 
d="M132 0v1062h263v-142q45 72 120.5 116t182.5 44q64 0 102 -9.5t47 -15.5l-48 -241q-9 7 -40 17.5t-82 10.5q-108 0 -169.5 -48t-87 -120t-25.5 -146v-528h-263zM379 1213l238 262h211l-268 -262h-181z" />
    <glyph glyph-name="rcaron" unicode="&#x159;" horiz-adv-x="881" 
d="M132 0v1062h263v-142q45 72 120.5 116t182.5 44q64 0 102 -9.5t47 -15.5l-48 -241q-9 7 -40 17.5t-82 10.5q-108 0 -169.5 -48t-87 -120t-25.5 -146v-528h-263zM211 1475h171l145 -171l146 171h173l-231 -262h-174z" />
    <glyph glyph-name="uni0157" unicode="&#x157;" horiz-adv-x="881" 
d="M132 0v1062h263v-142q45 72 120.5 116t182.5 44q64 0 102 -9.5t47 -15.5l-48 -241q-9 7 -40 17.5t-82 10.5q-108 0 -169.5 -48t-87 -120t-25.5 -146v-528h-263zM243 -259q-43 0 -68.5 23t-25.5 62q0 48 35.5 70t77.5 22q40 0 78.5 -25.5t38.5 -88.5q0 -73 -30 -123.5
t-72.5 -82t-80.5 -48.5l-18 45q44 17 89.5 60.5t45.5 112.5q-7 -12 -27.5 -19.5t-42.5 -7.5z" />
    <glyph glyph-name="uni0211" unicode="&#x211;" horiz-adv-x="881" 
d="M132 0v1062h263v-142q45 72 120.5 116t182.5 44q64 0 102 -9.5t47 -15.5l-48 -241q-9 7 -40 17.5t-82 10.5q-108 0 -169.5 -48t-87 -120t-25.5 -146v-528h-263zM775 1213h-145l-180 262h172zM452 1213h-146l-198 262h171z" />
    <glyph glyph-name="uni1E5B" unicode="&#x1e5b;" horiz-adv-x="881" 
d="M132 0v1062h263v-142q45 72 120.5 116t182.5 44q64 0 102 -9.5t47 -15.5l-48 -241q-9 7 -40 17.5t-82 10.5q-108 0 -169.5 -48t-87 -120t-25.5 -146v-528h-263zM266 -387q-64 0 -111 34t-47 95q0 62 47 96t111 34q62 0 109.5 -34t47.5 -96t-47.5 -95.5t-109.5 -33.5z" />
    <glyph glyph-name="uni0213" unicode="&#x213;" horiz-adv-x="881" 
d="M132 0v1062h263v-142q45 72 120.5 116t182.5 44q64 0 102 -9.5t47 -15.5l-48 -241q-9 7 -40 17.5t-82 10.5q-108 0 -169.5 -48t-87 -120t-25.5 -146v-528h-263zM255 1256q0 116 78 174t195 58q118 0 196 -58t78 -174h-156q0 61 -31.5 94.5t-86.5 33.5q-54 0 -85.5 -33.5
t-31.5 -94.5h-156z" />
    <glyph glyph-name="uni1E5F" unicode="&#x1e5f;" horiz-adv-x="881" 
d="M132 0v1062h263v-142q45 72 120.5 116t182.5 44q64 0 102 -9.5t47 -15.5l-48 -241q-9 7 -40 17.5t-82 10.5q-108 0 -169.5 -48t-87 -120t-25.5 -146v-528h-263zM-9 -288v111h545v-111h-545z" />
    <glyph glyph-name="s" unicode="s" horiz-adv-x="1127" 
d="M561 -22q-126 0 -234.5 37.5t-175 111.5t-66.5 184v23h262v-18q0 -65 59.5 -97.5t162.5 -32.5q84 0 150 27t66 86q0 63 -65 89.5t-202 49.5q-101 17 -197 52t-158.5 99t-62.5 169t62.5 176.5t168 108.5t232.5 37q122 0 227 -39.5t169.5 -115t64.5 -181.5v-16h-260v13
q0 68 -62.5 100t-138.5 32q-46 0 -93 -9.5t-79.5 -33.5t-32.5 -65q0 -60 72 -88t189 -48q73 -12 147 -32.5t136.5 -56t101 -92t38.5 -139.5q0 -116 -69.5 -189t-179 -107.5t-232.5 -34.5z" />
    <glyph glyph-name="sacute" unicode="&#x15b;" horiz-adv-x="1127" 
d="M561 -22q-126 0 -234.5 37.5t-175 111.5t-66.5 184v23h262v-18q0 -65 59.5 -97.5t162.5 -32.5q84 0 150 27t66 86q0 63 -65 89.5t-202 49.5q-101 17 -197 52t-158.5 99t-62.5 169t62.5 176.5t168 108.5t232.5 37q122 0 227 -39.5t169.5 -115t64.5 -181.5v-16h-260v13
q0 68 -62.5 100t-138.5 32q-46 0 -93 -9.5t-79.5 -33.5t-32.5 -65q0 -60 72 -88t189 -48q73 -12 147 -32.5t136.5 -56t101 -92t38.5 -139.5q0 -116 -69.5 -189t-179 -107.5t-232.5 -34.5zM414 1213l238 262h211l-268 -262h-181z" />
    <glyph glyph-name="uni1E65" unicode="&#x1e65;" horiz-adv-x="1127" 
d="M561 -22q-126 0 -234.5 37.5t-175 111.5t-66.5 184v23h262v-18q0 -65 59.5 -97.5t162.5 -32.5q84 0 150 27t66 86q0 63 -65 89.5t-202 49.5q-101 17 -197 52t-158.5 99t-62.5 169t62.5 176.5t168 108.5t232.5 37q122 0 227 -39.5t169.5 -115t64.5 -181.5v-16h-260v13
q0 68 -62.5 100t-138.5 32q-46 0 -93 -9.5t-79.5 -33.5t-32.5 -65q0 -60 72 -88t189 -48q73 -12 147 -32.5t136.5 -56t101 -92t38.5 -139.5q0 -116 -69.5 -189t-179 -107.5t-232.5 -34.5zM414 1213l238 262h211l-268 -262h-181zM589 1604q-63 0 -110.5 34t-47.5 95
q0 62 47.5 96t110.5 34q64 0 111 -34t47 -96t-47 -95.5t-111 -33.5z" />
    </font>
</defs>
</svg>
